[ Сегодня идет свободное скачивание без начисления Download ]


Статистика раздачи
Нет
 
   
 
Top  
 
 
-Да здравствует Франция! / Vive la France (2013) HDRip- Год выпуска: 2013
Производство: Франция / Lagende Films, Gaumont, Makayel
Жанр: Комедия
Перевод: Дублированный (лицензия)
Субтитры: Отсутствуют
Дата мировой премьеры: 16 января 2013
Дата российской премьеры: 28 ноября 2013, «Каскад»
Дата выхода DVD релиза: 23 декабря 2013, «Новый Диск»
Режиссер: Микаэль Юн
Продюсер: Ален Голдман, Франц Ричард
Актеры: Хосе Гарсия, Микаэль Юн, Изабель Фунаро, Эри Абиттан, Жером Коммандёр, Венсан Москато, Жан Франсуа Кэйри, Франк Гастамбид, Мусса Мааскри, Хамид Наджах
Описание фильма:
Сатирическая комедия. В вымышленной арабской стране Табулистан живут два друга. Им очень хочется, чтобы об их замечательной стране узнал весь мир. Лучшим способом прославить свою страну они выбирают зрелищное, но очень противозаконное представление. Заручившись поддержкой президента Табулистана, герои отправляются к своей цели - в Париж, чтобы взорвать Эйфелеву башню. «Да здравствует Франция!» - второй фильм в качестве режиссера популярного актера Микаэля Юна.
Продолжительность: 01:36:56
Качество видео: HDRip
Видеокодек: Xvid
Битрейт видео: ~873 Kbit/s
Размер кадра: 640 x 272
Аудиокодек: MP3, 2.0
Битрейт аудио: 128 Kbit/s

MediaInfo

Общее
Полное имя : D:\Торренты\Да здравствует Франция.2013.HDRip.avi
Формат : AVI
Формат/Информация : Audio Video Interleave
Размер файла : 700 Мбайт
Продолжительность : 1 ч. 36 м.
Общий поток : 1010 Кбит/сек
Программа кодирования : VirtualDubMod 1.5.10.2 (build 2540/release)
Библиотека кодирования : VirtualDubMod build 2540/release
Видео
Идентификатор : 0
Формат : MPEG-4 Visual
Профиль формата : Advanced Simple@L5
Параметр BVOP формата : 2
Параметр QPel формата : Нет
Параметр GMC формата : Без точки перехода
Параметр матрицы формата : Default (MPEG)
Идентификатор кодека : XVID
Идентификатор кодека/Подсказка : XviD
Продолжительность : 1 ч. 36 м.
Битрейт : 873 Кбит/сек
Ширина : 640 пикс.
Высота : 272 пикс.
Соотношение сторон : 2,35:1
Частота кадров : 24,000 кадр/сек
Цветовое пространство : YUV
Подвыборка цветности : 4:2:0
Битовая глубина : 8 бит
Тип развёртки : Прогрессивная
Метод сжатия : С потерями
Бит/(Пиксели*Кадры) : 0.209
Размер потока : 605 Мбайт (86%)
Библиотека кодирования : XviD 1.2.1 (UTC 2008-12-04)
Аудио
Идентификатор : 1
Формат : MPEG Audio
Версия формата : Version 1
Профиль формата : Layer 3
Режим : Joint stereo
Расширение режима : MS Stereo
Идентификатор кодека : 55
Идентификатор кодека/Подсказка : MP3
Продолжительность : 1 ч. 36 м.
Вид битрейта : Постоянный
Битрейт : 128 Кбит/сек
Каналы : 2 канала
Частота : 48,0 КГц
Метод сжатия : С потерями
Размер потока : 88,7 Мбайт (13%)
Выравнивание : Соединение по промежуткам
Продолжительность промежутка : 42 мс. (1,00 видеокадр)
Время предзагрузки промежутка : 504 ms
Скриншоты:
[th]http://img.torrentsclub.org/di/HA4M/1d06cc9ce8eebe7...de91dd1.jpg[/th] [th]http://img.torrentsclub.org/di/5O2Q/842dbfdfdcddcaf...df4541c.jpg[/th] [th]http://img.torrentsclub.org/di/48FM/7660636f47c9046...866a825.jpg[/th] [th]http://img.torrentsclub.org/di/T4OB/c2fff133c1ff012...67932fb.jpg[/th]
Время раздачи: 24/7 по возможности

[Цитировать]

Топик был перенесен из форума Новинки кинопроката в форум Комедия
Henkok



Показать сообщения:    

Текущее время: 09-Дек 05:00

Часовой пояс: UTC + 3


Вы не можете начинать темы
Вы не можете отвечать на сообщения
Вы не можете редактировать свои сообщения
Вы не можете удалять свои сообщения
Вы не можете голосовать в опросах
Вы не можете прикреплять файлы к сообщениям
Вы не можете скачивать файлы

!ВНИМАНИЕ!
Сайт не предоставляет электронные версии произведений, а занимается лишь коллекционированием и каталогизацией ссылок, присылаемых и публикуемых на форуме нашими читателями. Если вы являетесь правообладателем какого-либо представленного материала и не желаете, чтобы ссылка на него находилась в нашем каталоге, свяжитесь с нами, и мы незамедлительно удалим ее. Файлы для обмена на трекере предоставлены пользователями сайта, и администрация не несет ответственности за их содержание. Просьба не заливать файлы, защищенные авторскими правами, а также файлы нелегального содержания!