[ Сегодня идет свободное скачивание без начисления Download ]


Статистика раздачи
Нет
 
   
 
Top  
 
 
-Да здравствует Франция! / Vive la France (2013) BDRip- Год выпуска: 2013
Производство: Франция - Lagende Films, Gaumont, Makayel
Жанр: Комедия
Перевод: Дублированный |лицензия|
Субтитры: Вшитые отключаемые
Язык субтитров: Английский, французский, румынский
Режиссер: Микаэль Юн / Michal Youn
Актеры: Хосе Гарсия, Микаэль Юн, Изабель Фунаро, Эри Абиттан, Жером Коммандёр, Венсан Москато, Жан Франсуа Кэйри, Франк Гастамбид, Мусса Мааскри, Хамид Наджах
Описание фильма:
Сатирическая комедия. В вымышленной арабской стране Табулистан живут два друга. Им очень хочется, чтобы об их замечательной стране узнал весь мир. Лучшим способом прославить свою страну они выбирают зрелищное, но очень противозаконное представление. Заручившись поддержкой президента Табулистана, герои отправляются к своей цели - в Париж, чтобы взорвать Эйфелеву башню. «Да здравствует Франция!» - второй фильм в качестве режиссера популярного актера Микаэля Юна.
Дата мировой премьеры: 16 января 2013
Дата российской премьеры: 28 ноября 2013, «Каскад»
Дата выхода DVD релиза: 23 декабря 2013, «Новый Диск»
Продолжительность: 01:36:56
Качество видео: BDRip 720p
Видеокодек: MPEG-4 AVC/H.264
Видео: H264, 5352 Кбит/с, 1280x534, 24.000 кадр/с
Аудио #1: Русский: AC3, 5.1, 384 Кбит/с, 48kHz, 16 bit - дублированный
Аудио #2: Французский: DTS, 5.1, 1536 Кбит/с, 48 kHz, 24 bit
Сохранены оригинальные чаптеры как на Blu-Ray

MediaInfo:

Общее
Уникальный идентификатор : 204180250870825192405492821078180459738 (0x999BAF987BC00B84A5078C1A68F974DA)
Полное имя : D:\Video\Vive.la.France.2013.720p.BluRay.x264.Rus.Fre.Subs.mkv
Формат : Matroska
Версия формата : Version 2
Размер файла : 5,01 Гбайт
Продолжительность : 1 ч. 36 м.
Общий поток : 7393 Кбит/сек
Дата кодирования : UTC 2014-01-12 15:24:58
Программа кодирования : mkvmerge v4.9.1 ('Ich will') built on Jul 11 2011 23:53:15
Библиотека кодирования : libebml v1.2.1 + libmatroska v1.1.1
Видео
Идентификатор : 1
Формат : AVC
Формат/Информация : Advanced Video Codec
Профиль формата : High@L4.1
Параметр CABAC формата : Да
Параметр ReFrames формата : 12 кадров
Идентификатор кодека : V_MPEG4/ISO/AVC
Продолжительность : 1 ч. 36 м.
Битрейт : 5353 Кбит/сек
Ширина : 1280 пикселей
Высота : 534 пикселя
Соотношение сторон : 2,40:1
Режим частоты кадров : Постоянный
Частота кадров : 24,000 кадра/сек
Цветовое пространство : YUV
Субдискретизация насыщенности : 4:2:0
Битовая глубина : 8 бит
Тип развёртки : Прогрессивная
Бит/(Пиксели*Кадры) : 0.326
Размер потока : 3,62 Гбайт (72%)
Язык : French
Default : Да
Forced : Нет
Аудио #1
Идентификатор : 2
Формат : AC-3
Формат/Информация : Audio Coding 3
Расширение режима : CM (complete main)
Параметр Endianness формата : Big
Идентификатор кодека : A_AC3
Продолжительность : 1 ч. 36 м.
Вид битрейта : Постоянный
Битрейт : 384 Кбит/сек
Каналы : 6 каналов
Расположение каналов : Front: L C R, Side: L R, LFE
Частота : 48,0 КГц
Битовая глубина : 16 бит
Метод сжатия : С потерями
Размер потока : 266 Мбайт (5%)
Язык : Russian
Default : Да
Forced : Нет
Аудио #2
Идентификатор : 3
Формат : DTS
Формат/Информация : Digital Theater Systems
Режим : 16
Параметр Endianness формата : Big
Идентификатор кодека : A_DTS
Продолжительность : 1 ч. 36 м.
Вид битрейта : Постоянный
Битрейт : 1509 Кбит/сек
Каналы : 6 каналов
Расположение каналов : Front: L C R, Side: L R, LFE
Частота : 48,0 КГц
Битовая глубина : 24 бит
Метод сжатия : С потерями
Размер потока : 1,02 Гбайт (20%)
Заголовок : french
Язык : French
Default : Нет
Forced : Нет
Текст #1
Идентификатор : 4
Формат : UTF-8
Идентификатор кодека : S_TEXT/UTF8
Идентификатор кодека/Информация : UTF-8 Plain Text
Заголовок : Romanian
Язык : Romanian
Default : Да
Forced : Нет
Текст #2
Идентификатор : 5
Формат : UTF-8
Идентификатор кодека : S_TEXT/UTF8
Идентификатор кодека/Информация : UTF-8 Plain Text
Заголовок : english
Язык : English
Default : Нет
Forced : Нет
Текст #3
Идентификатор : 6
Формат : UTF-8
Идентификатор кодека : S_TEXT/UTF8
Идентификатор кодека/Информация : UTF-8 Plain Text
Заголовок : french forced
Язык : French
Default : Нет
Forced : Нет
Меню
00:00:00.000 : en:00:00:00.000
00:04:39.542 : en:00:04:39.542
00:12:41.000 : en:00:12:41.000
00:22:55.792 : en:00:22:55.792
00:29:17.208 : en:00:29:17.208
00:36:38.000 : en:00:36:38.000
00:46:50.708 : en:00:46:50.708
00:55:16.042 : en:00:55:16.042
01:05:50.625 : en:01:05:50.625
01:15:43.667 : en:01:15:43.667
01:24:54.125 : en:01:24:54.125
01:32:39.417 : en:01:32:39.417

Рецензия:

Vive la France, или французский юмор, как он есть
Понедельник, как известно, день тяжелый) Однако если выходные перед ним удались, то настроение понедельником не испортишь. Это я вам по собственному опыту говорю, так как у меня в выходные состоялось очень позитивное мероприятие — поход в кино. И не просто в кино, а на предпросмотр новой французской комедии культового комедийного актера Микаэля Юна, который, кстати, выступил еще и в роли режиссера представленной киноленты, состоявшийся в «Пионере». Честно говоря до сих пор хожу под впечатлением, ибо столь неординарного и тонкого подхода к столь сложному жанру, как юмор, я еще не встречала. Суть фильма вкратце такова: два пастуха, гражданина загадочной страны Табулистан, получают сверхсекретное задание — взорвать Эйфелеву башню (О_о), и не просто так, а с вполне определенной целью — заставить весь мир заговорить о своей, мало кому известной, родине. Главные герои, естественно соглашаются и вот тут-то и начинается их путешествие полное неожиданных сюрпризов и непредвиденных ситуаций.
Отличительная особенность этого фильма не столько тонкий. но отнюдь не пошлый французский юмор, сколько его смысловая нагрузка, не позволяющая зрителю остаться безучастным к происходящему на экране и ярко выраженная сатира на злободневные темы близкие и понятные каждому человеку. Кроме того к достоинствам фильма стоит отнести потрясающий актерский состав (Хосе Гарсия, Микаэль Юн, Изабель Фунаро и другие), отличное музыкальное сопровождение и позитив, которым пропитана буквально каждая секунда киноленты.

[Цитировать]



Показать сообщения:    

Текущее время: 10-Дек 17:48

Часовой пояс: UTC + 3


Вы не можете начинать темы
Вы не можете отвечать на сообщения
Вы не можете редактировать свои сообщения
Вы не можете удалять свои сообщения
Вы не можете голосовать в опросах
Вы не можете прикреплять файлы к сообщениям
Вы не можете скачивать файлы

!ВНИМАНИЕ!
Сайт не предоставляет электронные версии произведений, а занимается лишь коллекционированием и каталогизацией ссылок, присылаемых и публикуемых на форуме нашими читателями. Если вы являетесь правообладателем какого-либо представленного материала и не желаете, чтобы ссылка на него находилась в нашем каталоге, свяжитесь с нами, и мы незамедлительно удалим ее. Файлы для обмена на трекере предоставлены пользователями сайта, и администрация не несет ответственности за их содержание. Просьба не заливать файлы, защищенные авторскими правами, а также файлы нелегального содержания!