[ Сегодня идет свободное скачивание без начисления Download ]


Статистика раздачи
Нет
 
   
 
Top  
 
 
-Дагон / Dagon (2001) BDRip [H.264] - Год выпуска: 2001
Жанр: [sh]Ужасы, Фэнтези, Триллер, Детектив[/sh]
Производство: Испания/Castelao Producciones S.A., Estudios Piccaso, Fantastic Factory (Filmax), Generalitat De Catalunya Institut Catala De Les Industries Culturals (ICCA), Generalitat de Catalunya, Institut Catal de Finances, Televisi de Catalunya (TV3), Televisin de Galicia (TVG) S.A., Va Digital, Xunta de Galicia
Описание фильма:
Выброшенные на берег небольшого острова ужасным штормом Пауль и Барбара нашли прибежище в заброшенной рыбацкой деревушке. Когда Барбара неожиданно исчезает среди уродливых и отталкивающих местных жителей, Паулю приходится столкнуться с пугающей действительностью одинокого городка.
Пауль решается на жуткое расследование исчезновения Барбары в одиночку среди полного бездействия страшных обитателей деревушки. Но то, что обнаруживает Пауль в результате поисков вселяет страх и ужас и грозит опасностью всему миру.

Режиссер: Стюарт Гордон
Сценарий: Деннис Паоли, Говард Филлипс Лавкрафт
Продюсер: Брайан Юзна, Карлос Фернандес, Хулио Фернандес
Актеры: Эзра Годден, Франсиско Рабаль, Ракель Мероньо, Макарена Гомес, Брендан Прайс, Биргит Бофарулл, Уксия Бланко, Ферран Лаоз, Хоан Мингель, Альфредо Вилья
Продолжительность: 01:37:56
Качество видео: BDRip-AVC
Перевод: Многоголосый закадровый Дата мировой премьеры: 12 октября 2001
Дата выхода DVD релиза: 2 октября 2002, «Videogram»
Видеокодек: MPEG-4 AVC/H.264
Битрейт видео: ~2321 Кбит/сек
Размер кадра: 1024x576
Аудиокодек: AC3 5.1
Битрейт аудио: 384 Кбит/сек

Знаете ли вы, что...

Фильм «Дагон» - экранизация произведений Говарда Филлипса Лавкрафта «Дагон» и «Морок над Инсмутом».
Действие фильма, вопреки экранизированным произведениям, перенесены из Новой Англии в Испанию. Деревня, на фоне которой происходит действие фильма, практически не изменялась при её съёмках.
Сценарий к фильму был написан уже более 15 лет назад. Основной причиной отказа продюсеров от фильма были рыболюди, которых продюсеры просили заменить на оборотней или вампиров.
На футболке Пола написано «Мискатоник» — это вымышленный город из рассказов Лавкрафта.

Реценция с кинопоиска, студентка:

Просто великолепный фильм! Ужастик, который не пролсто заставляет тебя морщиться при виде ненатуральной крови, а сопереживать героям. Захватывающий сюжет, странный и необычный. Конец очень неожиданен.

Награды:

Сатурн, 2003 год
Номинации (1):
Лучшее DVD-издание

MediaInfo:

General
Unique ID : 209218571878728182225322873123015391084 (0x9D6608000554072481BED2ADB97E776C)
Complete name : F:\Downloads\Дагон.mkv
Format : Matroska
Format version : Version 4 / Version 2
File size : 1.85 GiB
Duration : 1h 37mn
Overall bit rate : 2 704 Kbps
Encoded date : UTC 2014-01-11 20:37:59
Writing application : mkvmerge v6.4.1 ('Omega Point') built on Sep 16 2013 22:05:10
Writing library : libebml v1.3.0 + libmatroska v1.4.1
Video
ID : 1
Format : AVC
Format/Info : Advanced Video Codec
Format profile : [email protected]
Format settings, CABAC : Yes
Format settings, ReFrames : 8 frames
Codec ID : V_MPEG4/ISO/AVC
Duration : 1h 37mn
Bit rate : 2 321 Kbps
Width : 1 024 pixels
Height : 576 pixels
Display aspect ratio : 16:9
Frame rate mode : Constant
Frame rate : 23.976 fps
Color space : YUV
Chroma subsampling : 4:2:0
Bit depth : 8 bits
Scan type : Progressive
Bits/(Pixel*Frame) : 0.164
Stream size : 1.55 GiB (84%)
Title : Dagon
Writing library : x264 core 130 r2273 b3065e6
Encoding settings : cabac=1 / ref=8 / deblock=1:0:0 / analyse=0x3:0x133 / me=umh / subme=9 / psy=1 / psy_rd=1.00:0.00 / mixed_ref=1 / me_range=32 / chroma_me=1 / trellis=2 / 8x8dct=1 / cqm=0 / deadzone=21,11 / fast_pskip=0 / chroma_qp_offset=-2 / threads=6 / lookahead_threads=1 / sliced_threads=0 / nr=0 / decimate=1 / interlaced=0 / bluray_compat=0 / constrained_intra=0 / bframes=3 / b_pyramid=2 / b_adapt=2 / b_bias=0 / direct=3 / weightb=1 / open_gop=0 / weightp=2 / keyint=250 / keyint_min=25 / scenecut=40 / intra_refresh=0 / rc_lookahead=60 / rc=2pass / mbtree=1 / bitrate=2321 / ratetol=1.0 / qcomp=0.60 / qpmin=10 / qpmax=51 / qpstep=4 / cplxblur=20.0 / qblur=0.5 / ip_ratio=1.40 / aq=1:1.00
Language : English
Default : Yes
Forced : No
Audio
ID : 2
Format : AC-3
Format/Info : Audio Coding 3
Mode extension : CM (complete main)
Format settings, Endianness : Big
Codec ID : A_AC3
Duration : 1h 37mn
Bit rate mode : Constant
Bit rate : 384 Kbps
Channel(s) : 6 channels
Channel positions : Front: L C R, Side: L R, LFE
Sampling rate : 48.0 KHz
Bit depth : 16 bits
Compression mode : Lossy
Stream size : 269 MiB (14%)
Title : Профессиональный многоголосый
Language : Russian
Default : Yes
Forced : No
Скриншоты:[th]http://img.torrentsclub.org/di/5I89/2c0395ac8892d87...c891b80.png[/th] [th]http://img.torrentsclub.org/di/SWUD/686c829e0c6e294...51d2881.png[/th] [th]http://img.torrentsclub.org/di/FGG1/77221aef38e15cd...1395b2b.png[/th] [th]http://img.torrentsclub.org/di/PSO3/ecea65d5ee6417c...b2a85d7.png[/th]Время раздачи: с 13:00 до 01:00 по Москве (выходные круглосуточно), до 10 скачавших

[Цитировать]



Показать сообщения:    

Текущее время: 04-Дек 04:53

Часовой пояс: UTC + 3


Вы не можете начинать темы
Вы не можете отвечать на сообщения
Вы не можете редактировать свои сообщения
Вы не можете удалять свои сообщения
Вы не можете голосовать в опросах
Вы не можете прикреплять файлы к сообщениям
Вы не можете скачивать файлы

!ВНИМАНИЕ!
Сайт не предоставляет электронные версии произведений, а занимается лишь коллекционированием и каталогизацией ссылок, присылаемых и публикуемых на форуме нашими читателями. Если вы являетесь правообладателем какого-либо представленного материала и не желаете, чтобы ссылка на него находилась в нашем каталоге, свяжитесь с нами, и мы незамедлительно удалим ее. Файлы для обмена на трекере предоставлены пользователями сайта, и администрация не несет ответственности за их содержание. Просьба не заливать файлы, защищенные авторскими правами, а также файлы нелегального содержания!