[ Сегодня идет свободное скачивание без начисления Download ]


Статистика раздачи
Нет
 
   
 
Top  
 
 
-Доспехи Бога / The Armour of God (1986, 1991, 2012) BDRip [1080p] [Трилогия]- Год выпуска: 1986, 1991, 2012
Производство: Китай, Гонконг, Югославия
Жанр: Боевик, триллер, комедия, криминал, приключения
Перевод: Дублированный, Двухголосый закадровый, Одноголосый закадровый
Субтитры: Отсутствуют
Режиссер: Джеки Чан, Эрик Цан
Актеры: Джеки Чан, Алан Там, Розамунд Кван, Лола Форнер, Божидар Смилянич, Кен Бойл, Ева Кобо, Шоко Икеда, Дэниэл Минтц, Альдо Самбрелл, Кен Гудман, Лин Персивал, Брюс Фонтейн, Уэйн Арчер, Квон Сан У, Ляо Фань, Синтхун Яо, Чжан Ланьсинь, Лаура Вейссбеккер, Оливер Плэтт, Эмили Гуйо, Кэйтлин Дешель, Кенни Джи
Описание фильма:
«Азиатский ястреб» — так назвали героя Джеки в Европе. Когда он похитил в Африке ритуальный меч, то не предполагал, что это начало опасных приключений. Оказывается, что меч — часть древних доспехов Бога, и если их уничтожить, то в мире будут править силы Ужаса и Зла...
Продолжительность: 01:28:31 | 01:46:29 | 02:02:56 Гoд выпуска: 1986
Жaнр: Боевик, комедия, приключения
Описaние фильма:
«Азиатский ястреб» — так назвали героя Джеки в Европе. Когда он похитил в Африке ритуальный меч, то не предполагал, что это начало опасных приключений. Оказывается, что меч — часть древних доспехов Бога, и если их уничтожить, то в мире будут править силы Ужаса и Зла. Силы Зла, которые укрылись в неприступном монастыре, узнают, что у Джеки есть доступ к остальным доспехам. Они похищают девушку, которую любит Ястреб, и требуют выкупа. Понимая, что одной ловкостью ему не справиться с полчищами бандитов, Джеки добровольно становится человеком — бомбой. Но этот козырь он приберег на самый крайний случай…
Режиcсер: Джеки Чан, Эрик Цан
Актeры: Джеки Чан, Алан Там, Розамунд Кван, Лола Форнер, Божидар Смилянич, Кен Бойл, Джон Ладальски, Роберт О’Брайэн, Борис Грегорич, Алисия Шонте, Вивиан Маклайф, Стефани Эванс, Линда Денлий, Кенни Би, Беннетт Пэнг, Карина Лау, Кларенс Фок Ииу-леунг, Дэнни Йип, Вейн Арчер
Произвoдство: Югославия, Гонконг
Продoлжительность: 01:28:31
Качество видео: BDRip
Перeвод: Авторский (одноголосый, закадровый), Профессиональный (двухголосый, закадровый)

Видеокодек: MPEG-4 AVC/H.264
Битрейт видео: 11,4 Мбит/сек
Размер кадра: 1920x1080
Аудио #1: AC3 5.1, 448 kbps - Авторский, А. Гаврилов (Русский)
Аудио #2: AC3 2.0, 192 kbps - Двухголосый, телеканал НТВ (Русский)
Аудио #3: AC3 2.0, 640 kbps - Двухголосый, П.Гланц и И.Королёва (Русский)
Аудио #4: AC3 2.0, 192 kbps - Двухголосый, Союз Видео (Русский)
Сэмпл: Ссылка

MediaInfo

Видео
Формат : AVC
Формат/Информация : Advanced Video Codec
Профиль формата : [email protected]
Параметр CABAC формата : Да
Параметр ReFrames формата : 4 кадра
Идентификатор кодека : V_MPEG4/ISO/AVC
Продолжительность : 1 ч. 28 м.
Битрейт : 11,4 Мбит/сек
Ширина : 1920 пикселей
Высота : 1080 пикселей
Соотношение сторон : 16:9
Режим частоты кадров : Постоянный
Частота кадров : 23,976 кадра/сек
Цветовое пространство : YUV
Субдискретизация насыщенности : 4:2:0
Битовая глубина : 8 бит
Тип развёртки : Прогрессивная
Бит/(Пиксели*Кадры) : 0.229
Размер потока : 6,88 Гбайт (87%)
Аудио #1
Формат : AC-3
Формат/Информация : Audio Coding 3
Расширение режима : CM (complete main)
Параметр Endianness формата : Big
Идентификатор кодека : A_AC3
Продолжительность : 1 ч. 28 м.
Вид битрейта : Постоянный
Битрейт : 448 Кбит/сек
Каналы : 6 каналов
Расположение каналов : Front: L C R, Side: L R, LFE
Частота : 48,0 КГц
Битовая глубина : 16 бит
Метод сжатия : С потерями
Размер потока : 284 Мбайт (3%)
Заголовок : AC3 5.1ch 448 kbps - Авторский, А. Гаврилов
Язык : Russian
Аудио #2
Формат : AC-3
Формат/Информация : Audio Coding 3
Расширение режима : CM (complete main)
Параметр Endianness формата : Big
Идентификатор кодека : A_AC3
Продолжительность : 1 ч. 28 м.
Вид битрейта : Постоянный
Битрейт : 192 Кбит/сек
Каналы : 2 канала
Расположение каналов : Front: L R
Частота : 48,0 КГц
Битовая глубина : 16 бит
Метод сжатия : С потерями
Размер потока : 122 Мбайт (1%)
Заголовок : AC3 2.0ch 192 kbps - Двухголосый, телеканал НТВ
Язык : Russian
Аудио #3
Формат : AC-3
Формат/Информация : Audio Coding 3
Расширение режима : CM (complete main)
Параметр Endianness формата : Big
Идентификатор кодека : A_AC3
Продолжительность : 1 ч. 28 м.
Вид битрейта : Постоянный
Битрейт : 640 Кбит/сек
Каналы : 2 канала
Расположение каналов : Front: L R
Частота : 48,0 КГц
Битовая глубина : 16 бит
Метод сжатия : С потерями
Размер потока : 405 Мбайт (5%)
Заголовок : AC3 2.0ch 640 kbps - Двухголосый, П.Гланц и И.Королёва
Язык : Russian
Аудио #4
Формат : AC-3
Формат/Информация : Audio Coding 3
Расширение режима : CM (complete main)
Параметр Endianness формата : Big
Идентификатор кодека : A_AC3
Продолжительность : 1 ч. 28 м.
Вид битрейта : Постоянный
Битрейт : 192 Кбит/сек
Каналы : 2 канала
Расположение каналов : Front: L R
Частота : 48,0 КГц
Битовая глубина : 16 бит
Метод сжатия : С потерями
Размер потока : 122 Мбайт (1%)
Заголовок : AC3 2.0ch 192 kbps - Двухголосый, Союз Видео
Язык : Russian
Скриншоты:

Гoд выпуска: 1991
Жaнр: Боевик, триллер, комедия, криминал, приключения
Описaние фильма:
Азиатский Ястреб возвращается! На этот раз ему предстоит новая работа, из-за которой наш герой опять приезжает в Мадрид. Некий загадочный миллионер предлагает Ястребу заняться поисками нацистских сокровищ, которые спрятаны в глубине африканской пустыни. Он передает ключ к сокровищнице, соглашается финансировать экспедицию и отправляет с Ястребом попутчицу — специалиста по Африке Аду.
Во-время, своего пребывания в Мадриде, Ястреб знакомится с немецкой девушкой Эльзой, которая разыскивает своего деда, пропавшего во время войны в Африке. После ряда приключений Эльза тоже присоединяется к экспедиции.
Режиссeр: Джеки Чан
Актeры: Джеки Чан, Ева Кобо, Шоко Икеда, Дэниэл Минтц, Альдо Самбрелл, Кен Гудман, Лин Персивал, Брюс Фонтейн, Уэйн Арчер
Произвoдство: Гонконг
Продoлжительность: 01:46:29
Качество видео: BDRip
Перeвод: Профессиональный (двухголосый, закадровый), Авторский (одноголосый, закадровый)

Видеокодек: MPEG-4 AVC/H.264
Битрейт видео: 9668 kb/s
Размер кадра: 1920x808
Аудио #1: AC3 2.0, 192 kbps - Двухголосый, телеканал НТВ (Русский)
Аудио #2: AC3 2.0, 192 kbps - Авторский, А. Кашкин (Русский)
Аудио #3: AC3 5.1, 640 kbps - Двухголосый, П.Гланц и И.Королёва (Русский)
Сэмпл: Ссылка

MediaInfo

Видео
Формат : AVC
Формат/Информация : Advanced Video Codec
Профиль формата : [email protected]
Параметр CABAC формата : Да
Параметр ReFrames формата : 5 кадров
Идентификатор кодека : V_MPEG4/ISO/AVC
Продолжительность : 1 ч. 46 м.
Битрейт : 9668 Кбит/сек
Ширина : 1920 пикселей
Высота : 808 пикселей
Соотношение сторон : 2,40:1
Режим частоты кадров : Постоянный
Частота кадров : 23,976 кадра/сек
Цветовое пространство : YUV
Субдискретизация насыщенности : 4:2:0
Битовая глубина : 8 бит
Тип развёртки : Прогрессивная
Бит/(Пиксели*Кадры) : 0.260
Размер потока : 7,03 Гбайт (88%)
Библиотека кодирования : x264 core 129 r2245 bc13772
Аудио #1
Формат : AC-3
Формат/Информация : Audio Coding 3
Расширение режима : CM (complete main)
Параметр Endianness формата : Big
Идентификатор кодека : A_AC3
Продолжительность : 1 ч. 46 м.
Вид битрейта : Постоянный
Битрейт : 192 Кбит/сек
Каналы : 2 канала
Расположение каналов : Front: L R
Частота : 48,0 КГц
Битовая глубина : 16 бит
Метод сжатия : С потерями
Размер потока : 146 Мбайт (2%)
Заголовок : AC3 2.0ch 192 kbps - Двухголосый, телеканал НТВ
Язык : Russian
Аудио #2
Формат : AC-3
Формат/Информация : Audio Coding 3
Расширение режима : CM (complete main)
Параметр Endianness формата : Big
Идентификатор кодека : A_AC3
Продолжительность : 1 ч. 46 м.
Вид битрейта : Постоянный
Битрейт : 192 Кбит/сек
Каналы : 2 канала
Расположение каналов : Front: L R
Частота : 48,0 КГц
Битовая глубина : 16 бит
Метод сжатия : С потерями
Размер потока : 146 Мбайт (2%)
Заголовок : AC3 2.0ch 192 kbps - Авторский, А. Кашкин
Язык : Russian
Аудио #3
Формат : AC-3
Формат/Информация : Audio Coding 3
Расширение режима : CM (complete main)
Параметр Endianness формата : Big
Идентификатор кодека : A_AC3
Продолжительность : 1 ч. 46 м.
Вид битрейта : Постоянный
Битрейт : 640 Кбит/сек
Каналы : 6 каналов
Расположение каналов : Front: L C R, Side: L R, LFE
Частота : 48,0 КГц
Битовая глубина : 16 бит
Метод сжатия : С потерями
Размер потока : 487 Мбайт (6%)
Заголовок : AC3 5.1ch 640 kbps - Двухголосый, П.Гланц и И.Королёва
Язык : Russian
Скриншоты:

Гoд выпуска: 2012
Жaнр: Боевик, комедия, приключения
Описaние фильма:
Группа в обновленном составе направляется на тропический остров, где среди обломков севшего на мель корабля спрятаны еще две статуэтки. В тропиках Джею Си и его друзьям противостоит банда разношерстных пиратов. Только благодаря безупречным боевым навыкам героя удается одержать верх. Вернувшись домой, Джей Си с удивлением узнает, что таинственный заказчик уже собрал шесть других статуэток. Ничего удивительного в том, что Ястреб собирается преподать ему урок хороших манер.
Рeжиссер: Джеки Чан
Актeры: Джеки Чан, Квон Сан У, Ляо Фань, Синтхун Яо, Чжан Ланьсинь, Лаура Вейссбеккер, Оливер Плэтт, Эмили Гуйо, Кэйтлин Дешель, Кенни Джи
Прoизводство: Китай, Гонконг
Прoдолжительность: 02:02:56
Качество видео: BDRip
Перeвод: Дублированный

Видеокодек: MPEG-4 AVC/H.264
Битрейт видео: 7950 kb/s
Размер кадра: 1920x800
Аудио #1: AC3 5.1, 640 Кбит/с - Русский, дублированный
Аудио #2: AC3 5.1, 448 Кбит/с - Китайский
Сэмпл: Ссылка

MediaInfo

Видео
Формат : AVC
Формат/Информация : Advanced Video Codec
Профиль формата : [email protected]
Параметр CABAC формата : Да
Параметр ReFrames формата : 5 кадров
Идентификатор кодека : V_MPEG4/ISO/AVC
Продолжительность : 2 ч. 2 м.
Битрейт : 7950 Кбит/сек
Ширина : 1920 пикселей
Высота : 800 пикселей
Соотношение сторон : 2,40:1
Режим частоты кадров : Постоянный
Частота кадров : 24,000 кадра/сек
Цветовое пространство : YUV
Субдискретизация насыщенности : 4:2:0
Битовая глубина : 8 бит
Тип развёртки : Прогрессивная
Бит/(Пиксели*Кадры) : 0.216
Размер потока : 6,67 Гбайт (86%)
Заголовок : Release by Alex260680
Библиотека кодирования : x264 core 130 r2273 b3065e6
Аудио #1
Формат : AC-3
Формат/Информация : Audio Coding 3
Расширение режима : CM (complete main)
Параметр Endianness формата : Big
Идентификатор кодека : A_AC3
Продолжительность : 2 ч. 2 м.
Вид битрейта : Постоянный
Битрейт : 640 Кбит/сек
Каналы : 6 каналов
Расположение каналов : Front: L C R, Side: L R, LFE
Частота : 48,0 КГц
Битовая глубина : 16 бит
Метод сжатия : С потерями
Размер потока : 563 Мбайт (7%)
Заголовок : DUB
Язык : Russian
Аудио #2
Формат : AC-3
Формат/Информация : Audio Coding 3
Расширение режима : CM (complete main)
Параметр Endianness формата : Big
Идентификатор кодека : A_AC3
Продолжительность : 2 ч. 2 м.
Вид битрейта : Постоянный
Битрейт : 448 Кбит/сек
Каналы : 6 каналов
Расположение каналов : Front: L C R, Side: L R, LFE
Частота : 48,0 КГц
Битовая глубина : 16 бит
Метод сжатия : С потерями
Размер потока : 394 Мбайт (5%)
Заголовок : Original
Язык : Chinese
Скриншоты:

Скриншоты:


[Цитировать]



Показать сообщения:    

Текущее время: 04-Дек 17:17

Часовой пояс: UTC + 3


Вы не можете начинать темы
Вы не можете отвечать на сообщения
Вы не можете редактировать свои сообщения
Вы не можете удалять свои сообщения
Вы не можете голосовать в опросах
Вы не можете прикреплять файлы к сообщениям
Вы не можете скачивать файлы

!ВНИМАНИЕ!
Сайт не предоставляет электронные версии произведений, а занимается лишь коллекционированием и каталогизацией ссылок, присылаемых и публикуемых на форуме нашими читателями. Если вы являетесь правообладателем какого-либо представленного материала и не желаете, чтобы ссылка на него находилась в нашем каталоге, свяжитесь с нами, и мы незамедлительно удалим ее. Файлы для обмена на трекере предоставлены пользователями сайта, и администрация не несет ответственности за их содержание. Просьба не заливать файлы, защищенные авторскими правами, а также файлы нелегального содержания!