[ Сегодня идет свободное скачивание без начисления Download ]


Статистика раздачи
Буду качать: [ 1 ]
 
   
 
Top  
 
 
-[sh]МУР. Третий фронт[/sh]- Страна: Россия
Производство: Студия «Дед Мороз», Кинокомпания «Квадрат»
Год выпуска: 2011
Жанр: Криминал, военный
Режиссёр: Эльёр Ишмухамедов
В ролях: Михаил Ефремов, Александр Домогаров, Марина Александрова, Елизавета Боярская, Иван Стебунов, Тамара Акулова, Игорь Лифанов, Анатолий Лобоцкий, Владимир Гостюхин, Юрий Цурило, Игорь Скляр, Шухрат Иргашев, Людмила Аринина, Наталья Гребёнкина, Елена Фомина, Михаил Васьков, Сергей Петров (II), Юрий Нифонтов, Владимир Давиденко, Илья Иосифов, Александр Яцко, Борис Галкин (II), Анна Каменкова, Олег Шкловский, Елена Морозова, Сергей Угрюмов, Анатолий Пашинин, Ирина Гринева, Кирилл Болтаев, Сергей Тарамаев, Антон Хомятов, Олег Каменщиков, Вячеслав Титов, Екатерина Крутикова, Сергей Карякин, Любовь Львова, Валерий Ненашев, Елена Мольченко (Фатюшина), Мария Фортунатова, Юлия Силаева, Евгений Хохольков, Виталий Гребенников, Юрий Тарасов, Михаил Самохвалов, Вячеслав Коваленко, Владимир Бадов, Алимжан Тохтахунов, Марк Мильготин, Виталий Водолазов, Андрей Гусев (II), Никита Померанцев, Константин Константинов (II), Сахат Дурсунов, Кирилл Продолятченко, Екатерина Галахова, Анна Багмет, Ксения Громова, Ирина Безрукова, Юрий Мазихин, Алексей Фатеев, Николай Ефремов (II), Никита Иванов, Александр Усов, Людмила Соловьёва
Перевод: Не требуется
Субтитры: Отсутствуют
Описание: По произведениям Эдуарда Хруцкого из цикла ОББ. События разворачиваются в Москве в годы войны. Главный герой Иван Данилов, начальник Отдела по борьбе с бандитизмом Московского уголовного розыска, распутывает одно дело за другим, предотвращает спланированные немцами диверсии в прифронтовой столице и ловит бандитов. В центре истории - противостояние начальника отдела МУРа (Михаил Ефремов) с главарём бандитов (Александр Домогаров).-События сериала переносят нас в Москву и разворачиваются в годы войны. Главный герой - Иван Данилов, глава Отдела по борьбе с бандитизмом. Он занимается расследованием совершаемых в городе преступлений и выявлением готовящихся немцами диверсий. Сериал расскажет о следователях, которым выпала непростая работа в тылу, на Третьем Московском фронте. Именно здесь иногда происходили события, куда более опасные, чем в самом пекле передовой. Ещё в самом начале войны, в Москву подослан опасный агент - Петр Прилуцкий, который был опасным рецидивистом, известным под кличкой Крук. По заданию немецкого командования, Прилуцкий старается посеять среди москвичей панику и заставить их усомнится в близости победы. Всё это подогревают и постоянные грабежи, которые каждый день совершают преступные банды. Среди населения расползаются слухи, под угрозой срыва эвакуация заводов и ценностей. Именно с этой сложной ситуацией и приходится бороться Ивану Данилову и его подчиненным: Антону Шевцову, Степану Полесову, Игорю Муравьеву и Лидии Беловой.



Качество: DVDRip
Продолжительность: 20 х ~00:42:00
Формат: AVI
Видео кодек: XviD
Аудио кодек: AC3
Видео: 720x400 (1.80:1), 25 fps, XviD build 64 ~2023 kbps avg, 0.281 bit/pixel
Аудио: 48 kHz, Dolby Digital AC3, 3/2 (L,C,R,l,r) + LFE ch, ~448.00 kbps avg

MediaInfo

General
Complete name : C:\mur\mur_e01.avi
Format : AVI
Format/Info : Audio Video Interleave
File size : 758 MiB
Duration : 42mn 41s
Overall bit rate : 2 482 Kbps
Writing application : VirtualDubMod 1.5.10.3 | www.virtualdub-fr.org || (build 2550/release)
Writing library : VirtualDubMod build 2550/release
Video
ID : 0
Format : MPEG-4 Visual
Format profile : Advanced Simple@L5
Format settings, BVOP : 1
Format settings, QPel : No
Format settings, GMC : No warppoints
Format settings, Matrix : Custom
Codec ID : XVID
Codec ID/Hint : XviD
Duration : 42mn 41s
Bit rate : 2 024 Kbps
Width : 720 pixels
Height : 400 pixels
Display aspect ratio : 16:9
Frame rate : 25.000 fps
Color space : YUV
Chroma subsampling : 4:2:0
Bit depth : 8 bits
Scan type : Progressive
Compression mode : Lossy
Bits/(Pixel*Frame) : 0.281
Stream size : 618 MiB (82%)
Writing library : XviD 64
Audio
ID : 1
Format : AC-3
Format/Info : Audio Coding 3
Mode extension : CM (complete main)
Codec ID : 2000
Duration : 42mn 41s
Bit rate mode : Constant
Bit rate : 448 Kbps
Channel(s) : 6 channels
Channel positions : Front: L C R, Side: L R, LFE
Sampling rate : 48.0 KHz
Bit depth : 16 bits
Compression mode : Lossy
Stream size : 137 MiB (18%)
Alignment : Split accross interleaves
Interleave, duration : 40 ms (1.00 video frame)
Interleave, preload duration : 500 ms

[Цитировать]



Показать сообщения:    

Текущее время: 09-Дек 22:28

Часовой пояс: UTC + 3


Вы не можете начинать темы
Вы не можете отвечать на сообщения
Вы не можете редактировать свои сообщения
Вы не можете удалять свои сообщения
Вы не можете голосовать в опросах
Вы не можете прикреплять файлы к сообщениям
Вы не можете скачивать файлы

!ВНИМАНИЕ!
Сайт не предоставляет электронные версии произведений, а занимается лишь коллекционированием и каталогизацией ссылок, присылаемых и публикуемых на форуме нашими читателями. Если вы являетесь правообладателем какого-либо представленного материала и не желаете, чтобы ссылка на него находилась в нашем каталоге, свяжитесь с нами, и мы незамедлительно удалим ее. Файлы для обмена на трекере предоставлены пользователями сайта, и администрация не несет ответственности за их содержание. Просьба не заливать файлы, защищенные авторскими правами, а также файлы нелегального содержания!