[ Сегодня идет свободное скачивание без начисления Download ]


Статистика раздачи
Нет
 
   
 
Top  
 
 
-Три мушкетера - Год выпуска: 2013
Производство: Россия, ООО Кинопоиск
Жанр: Приключения
Перевод: Отсутствует
Дата мировой премьеры: 14 ноября 2013
Дата российской премьеры: 14 ноября 2013, «Каропрокат»
Дата выхода DVD релиза: 16 декабря 2013, «Новый Диск»
Режиссер: Сергей Жигунов
Актеры: Риналь Мухаметов, Юрий Чурсин, Алексей Макаров, Павел Баршак, Екатерина Вилкова, Анна Старшенбаум, Василий Лановой, Филипп Янковский, Константин Лавроненко, Мария Миронова
Описание фильма:
«Три мушкетера» — это история о юном гасконце Д’Артаньяне, который, не познав всех радостей любви, оказывается втянут в водоворот политических интриг королевского двора Людовика XIII. В роте королевских мушкетеров Де Тревиля он находит себе верных друзей Атоса, Портоса и Арамиса. Мушкетеры настолько поражены кипучей энергией гасконца и его умением находить неприятности, что принимают самое живое участие не только в многочисленных стычках с гвардейцами кардинала, но и в личной судьбе Д’Артаньяна. Благодаря друзьям Д’Артаньян находит свою первую любовь — Констанцию Бонасье и ввязывается в опаснейшую историю с подвесками Королевы. Тонкий и дальновидный политик кардинал Ришелье и его подручные Рошфор и Миледи обретают в лице Д’Артаньяна опаснейшего врага. Во имя любви он готов на самые отчаянные подвиги. На пути Д’Артаньяна немало опасных соблазнов и искушений. Но он их все преодолеет, не предав своей дружбы и любви!

Продолжительность: 02:03:30
Качество видео: HDRip
Видеокодек: Xvid
Битрейт видео: ~1918 Кбит/сек
Размер кадра: 720x400
Аудиокодек: AC3 5.1
Битрейт аудио: 448 kb/s
Сэмпл: Скачать

MI

Полное имя : ThRee.Musketera.2013.O.HDRip.2100Mb.avi
Формат : AVI
Формат/Информация : Audio Video Interleave
Профиль формата : OpenDML
Размер файла : 2,05 Гбайт
Продолжительность : 2 ч. 3 м.
Общий поток : 2379 Кбит/сек
Программа кодирования : VirtualDubMod 1.5.10.2 (build 2540/release)
Библиотека кодирования : VirtualDubMod build 2540/release
Видео
Идентификатор : 0
Формат : MPEG-4 Visual
Профиль формата : Advanced Simple@L5
Параметр BVOP формата : 2
Параметр QPel формата : Нет
Параметр GMC формата : Без точки перехода
Параметр матрицы формата : Выборочная
Идентификатор кодека : XVID
Идентификатор кодека/Подсказка : XviD
Продолжительность : 2 ч. 3 м.
Битрейт : 1918 Кбит/сек
Ширина : 720 пикселей
Высота : 400 пикселей
Соотношение сторон : 16:9
Частота кадров : 24,000 кадра/сек
Цветовое пространство : YUV
Субдискретизация насыщенности : 4:2:0
Битовая глубина : 8 бит
Тип развёртки : Прогрессивная
Метод сжатия : С потерями
Бит/(Пиксели*Кадры) : 0.278
Размер потока : 1,66 Гбайт (81%)
Библиотека кодирования : XviD 1.2.1 (UTC 2008-12-04)
Аудио
Идентификатор : 1
Формат : AC-3
Формат/Информация : Audio Coding 3
Расширение режима : CM (complete main)
Параметр Endianness формата : Big
Идентификатор кодека : 2000
Продолжительность : 2 ч. 3 м.
Вид битрейта : Постоянный
Битрейт : 448 Кбит/сек
Каналы : 6 каналов
Расположение каналов : Front: L C R, Side: L R, LFE
Частота : 48,0 КГц
Битовая глубина : 16 бит
Метод сжатия : С потерями
Размер потока : 396 Мбайт (19%)
Выравнивание : Разделение по промежуткам
Продолжительность промежутка : 42 мс. (1,00 видеокадр)
Время предзагрузки промежутка : 500 мс.

[Цитировать]

Топик был перенесен из форума Новинки кинопроката в форум Приключения / Исторический
Henkok



Показать сообщения:    

Текущее время: 07-Дек 15:36

Часовой пояс: UTC + 3


Вы не можете начинать темы
Вы не можете отвечать на сообщения
Вы не можете редактировать свои сообщения
Вы не можете удалять свои сообщения
Вы не можете голосовать в опросах
Вы не можете прикреплять файлы к сообщениям
Вы не можете скачивать файлы

!ВНИМАНИЕ!
Сайт не предоставляет электронные версии произведений, а занимается лишь коллекционированием и каталогизацией ссылок, присылаемых и публикуемых на форуме нашими читателями. Если вы являетесь правообладателем какого-либо представленного материала и не желаете, чтобы ссылка на него находилась в нашем каталоге, свяжитесь с нами, и мы незамедлительно удалим ее. Файлы для обмена на трекере предоставлены пользователями сайта, и администрация не несет ответственности за их содержание. Просьба не заливать файлы, защищенные авторскими правами, а также файлы нелегального содержания!