[ Сегодня идет свободное скачивание без начисления Download ]


Статистика раздачи
Нет
 
   
 
Top  
 
 
Metallica: Сквозь невозможное / Metallica: Through the Never-Год выпуска: 2013
Страна: США / Picturehouse Entertainment LLC
Жанр: мюзикл, музыка, приключения
Продолжительность: 01:32:44
Перевод: оригинал
Субтитры: нет-В ролях: Дэйн ДеХаан, Джеймс Хетфилд, Ларс Ульрих, Кирк Хеммет, Роберт Трухильо, Кайл Томсон,
Тоби Харгрейв, МакКензи Грэй, Питер Брайант, Хротгар Мэтьюз и др.
Режиссёр: Нимрод Антал-Описание: Участник технической команды группы Metallica получает задание — привезти сумку, содержимое которой необходимо группе для выступления. Сопровождая таинственную сумку, он попадает в невероятные передряги. Картина представляет собой смесь игрового фильма и концерта.-Качество: BDRip 720p
Формат: mkv
Видео кодек: H264
Аудио кодек: AC3 / DTS
Видео: AVC, 1280x534 (2.40:1), ~ 5246 Kbps, 23.976 fps
Аудио 1: English AC3 5.1, 48 kHz, 448 kbps, 16-bit
Аудио 2: English DTS 5.1, ~ 1509 kbps, 48 kHz, 24-bit
Аудио 3: English DTS 2.0, ~ 1509 kbps, 48 kHz, 24-bit-

MediaInfo

Общее
Уникальный идентификатор : 225550918422104550779853121946948612935 (0xA9AF86DAE0D66AA7BFD2612C07023347)
Полное имя : D:\Кино\Metallica.Through.The.Never.2013.720p.mkv
Формат : Matroska
Версия формата : Version 2
Размер файла : 5,76 Гбайт
Продолжительность : 1 ч. 32 м.
Общий поток : 8889 Кбит/сек
Название фильма : Metallica.Through.The.Never.2013.720p
Дата кодирования : UTC 2014-01-13 05:55:52
Программа кодирования : mkvmerge v5.5.0 ('Healer') built on Apr 9 2012 13:24:38
Библиотека кодирования : libebml v1.2.3 + libmatroska v1.3.0
Видео
Идентификатор : 1
Формат : AVC
Формат/Информация : Advanced Video Codec
Профиль формата : High@L4.1
Параметр CABAC формата : Да
Параметр ReFrames формата : 5 кадров
Режим смешивания : Header stripping
Идентификатор кодека : V_MPEG4/ISO/AVC
Продолжительность : 1 ч. 32 м.
Битрейт : 5246 Кбит/сек
Ширина : 1280 пикселей
Высота : 534 пикселя
Соотношение сторон : 2,40:1
Режим частоты кадров : Постоянный
Частота кадров : 23,976 кадра/сек
Цветовое пространство : YUV
Субдискретизация насыщенности : 4:2:0
Битовая глубина : 8 бит
Тип развёртки : Прогрессивная
Бит/(Пиксели*Кадры) : 0.320
Размер потока : 3,40 Гбайт (59%)
Заголовок : Metallica.Through.The.Never.2013.720p
Язык : English
Default : Да
Forced : Нет
Аудио #1
Идентификатор : 2
Формат : AC-3
Формат/Информация : Audio Coding 3
Расширение режима : CM (complete main)
Параметр Endianness формата : Big
Режим смешивания : Header stripping
Идентификатор кодека : A_AC3
Продолжительность : 1 ч. 32 м.
Вид битрейта : Постоянный
Битрейт : 448 Кбит/сек
Каналы : 6 каналов
Расположение каналов : Front: L C R, Side: L R, LFE
Частота : 48,0 КГц
Битовая глубина : 16 бит
Метод сжатия : С потерями
Размер потока : 297 Мбайт (5%)
Заголовок : AC3 5.1 V_ATAKy
Язык : English
Default : Да
Forced : Нет
Аудио #2
Идентификатор : 3
Формат : DTS
Формат/Информация : Digital Theater Systems
Режим : 16
Параметр Endianness формата : Big
Режим смешивания : Header stripping
Идентификатор кодека : A_DTS
Продолжительность : 1 ч. 32 м.
Вид битрейта : Постоянный
Битрейт : 1509 Кбит/сек
Каналы : 6 каналов
Расположение каналов : Front: L C R, Side: L R, LFE
Частота : 48,0 КГц
Битовая глубина : 24 бит
Метод сжатия : С потерями
Размер потока : 1001 Мбайт (17%)
Заголовок : DTS 5.1 Ch
Язык : English
Default : Нет
Forced : Нет
Аудио #3
Идентификатор : 4
Формат : DTS
Формат/Информация : Digital Theater Systems
Режим : 16
Параметр Endianness формата : Big
Режим смешивания : Header stripping
Идентификатор кодека : A_DTS
Продолжительность : 1 ч. 32 м.
Вид битрейта : Постоянный
Битрейт : 1509 Кбит/сек
Каналы : 2 канала
Расположение каналов : Front: L R
Частота : 48,0 КГц
Битовая глубина : 24 бит
Метод сжатия : С потерями
Размер потока : 1001 Мбайт (17%)
Заголовок : DTS 2.0 Ch
Язык : English
Default : Нет
Forced : Нет
Меню
00:00:00.000 : en:00:00:00.000
00:03:48.228 : en:00:03:48.228
00:05:17.317 : en:00:05:17.317
00:10:56.155 : en:00:10:56.155
00:15:01.359 : en:00:15:01.359
00:19:34.965 : en:00:19:34.965
00:25:41.498 : en:00:25:41.498
00:34:43.957 : en:00:34:43.957
00:39:51.931 : en:00:39:51.931
00:41:25.274 : en:00:41:25.274
00:47:09.076 : en:00:47:09.076
00:55:25.697 : en:00:55:25.697
01:03:46.239 : en:01:03:46.239
01:07:02.060 : en:01:07:02.060
01:12:45.486 : en:01:12:45.486
01:19:27.429 : en:01:19:27.429
01:24:26.937 : en:01:24:26.937

[Цитировать]



Показать сообщения:    

Текущее время: 07-Дек 17:32

Часовой пояс: UTC + 3


Вы не можете начинать темы
Вы не можете отвечать на сообщения
Вы не можете редактировать свои сообщения
Вы не можете удалять свои сообщения
Вы не можете голосовать в опросах
Вы не можете прикреплять файлы к сообщениям
Вы не можете скачивать файлы

!ВНИМАНИЕ!
Сайт не предоставляет электронные версии произведений, а занимается лишь коллекционированием и каталогизацией ссылок, присылаемых и публикуемых на форуме нашими читателями. Если вы являетесь правообладателем какого-либо представленного материала и не желаете, чтобы ссылка на него находилась в нашем каталоге, свяжитесь с нами, и мы незамедлительно удалим ее. Файлы для обмена на трекере предоставлены пользователями сайта, и администрация не несет ответственности за их содержание. Просьба не заливать файлы, защищенные авторскими правами, а также файлы нелегального содержания!