[ Сегодня идет свободное скачивание без начисления Download ]


Статистика раздачи
Нет
 
   
 
Top  
 
 
-Metallica: Сквозь невозможное / Metallica Through the Never (2013) BDRip 3D
«Experience Metallica like never before»
- Год выпуска: 2013
Производство: США / Picturehouse Entertainment LLC
Жанр: Мюзикл, Музыка, Приключения
Язык: Английский
Перевод: Отсутствует
Субтитры: Отсутствуют
Режиссер: Нимрод Антал / Nimrod Antal
Продюсер: Шарлотта Клэй Хаггинс, Адам Эллисон, Кирк Хеммет
Актеры: Дэйн ДеХаан, Джеймс Хетфилд, Ларс Ульрих, Кирк Хеммет, Роберт Трухильо, Кайл Томсон, Тоби Харгрейв, МакКензи Грэй, Питер Брайант, Хротгар Мэтьюз
Описание фильма:
Участник технической команды группы Metallica получает задание — привезти сумку, содержимое которой необходимо группе для выступления. Сопровождая таинственную сумку, он попадает в невероятные передряги. Картина представляет собой смесь игрового фильма и концерта.-[kp]661625[/kp] [imdb]tt2172935[/imdb]
Дата мировой премьеры: 9 сентября 2013
Дата российской премьеры: 26 сентября 2013, «West»
Рейтинг MPAA: R
Возраст: 16+
Продолжительность: 01:32:43
Качество видео: BDRip 3D
Видео: MPEG4_AVC/H.264, 1920x1080, ~15500 kbps, 23.976 fps
Аудио 1: DTS 5.1, 1536 kbps, 48 kHz [Английский - оригинал]
Аудио 2: DTS 2.0, 1536 kbps, 48 kHz [Английский - оригинал]

Композиции, звучащие в фильме

Треклист:
01. The Ecstasy of Gold
02. Creeping Death
03. For Whom the Bell Tolls
04. Fuel
05. Ride the Lightning
06. One
07. The Memory Remains
08. Wherever I May Roam
09. Cyanide
10. ...And Justice for All
11. Master of Puppets
12. Battery
13. Nothing Else Matters
14. Enter Sandman
15. Hit the Lights
16. Orion

Музыканты / состав

James Hetfield — lead vocals, rhythm guitar
Lars Ulrich — drums
Kirk Hammett — lead guitar
Robert Trujillo — bass

Отчёт MediaInfo

Полное имя : D:\Metallica.Сквозь.невозможное-Metallica.Through.the.Never.(2013).BDRip.[1080p].3D.mkv
Формат : Matroska
Версия формата : Version 2
Размер файла : 12,2 Гбайт
Продолжительность : 1 ч. 32 м.
Общий поток : 18,9 Мбит/сек
Название фильма : Metallica Through the Never (2013) 3D
Дата кодирования : UTC 2014-01-13 13:02:12
Программа кодирования : mkvmerge v5.7.0 ('The Whirlwind') built on Aug 7 2012 14:11:40
Библиотека кодирования : libebml v1.2.3 + libmatroska v1.3.0
Attachment : Yes
Видео
Идентификатор : 1
Формат : AVC
Формат/Информация : Advanced Video Codec
Профиль формата : [email protected]
Параметр CABAC формата : Да
Параметр ReFrames формата : 2 кадра
Идентификатор кодека : V_MPEG4/ISO/AVC
Продолжительность : 1 ч. 32 м.
Битрейт : 15,5 Мбит/сек
Ширина : 1920 пикселей
Высота : 1080 пикселей
Соотношение сторон : 16:9
Режим частоты кадров : Постоянный
Частота кадров : 23,976 кадра/сек
Цветовое пространство : YUV
Субдискретизация насыщенности : 4:2:0
Битовая глубина : 8 бит
Тип развёртки : Прогрессивная
Бит/(Пиксели*Кадры) : 0.312
Размер потока : 10,0 Гбайт (82%)
Заголовок : Metallica.Сквозь.невозможное-Metallica.Through.the.Never.(2013).BDRip.[1080p].3D
Библиотека кодирования : x264 core
Язык : English
Default : Да
Forced : Нет
Основные цвета : BT.709
Характеристики трансфера : BT.709
Коэффициенты матрицы : BT.709
Аудио #1
Идентификатор : 2
Формат : DTS
Формат/Информация : Digital Theater Systems
Идентификатор кодека : A_DTS
Продолжительность : 1 ч. 32 м.
Вид битрейта : Постоянный
Битрейт : 1510 Кбит/сек
Каналы : 6 каналов
Расположение каналов : Front: L C R, Side: L R, LFE
Частота : 48,0 КГц
Битовая глубина : 24 бит
Метод сжатия : С потерями
Размер потока : 1001 Мбайт (8%)
Заголовок : DTS 5.1 / 1536 kbps / Original
Язык : English
Default : Да
Forced : Нет
Аудио #2
Идентификатор : 3
Формат : DTS
Формат/Информация : Digital Theater Systems
Идентификатор кодека : A_DTS
Продолжительность : 1 ч. 32 м.
Вид битрейта : Постоянный
Битрейт : 1510 Кбит/сек
Каналы : 2 канала
Расположение каналов : Front: L R
Частота : 48,0 КГц
Битовая глубина : 24 бит
Метод сжатия : С потерями
Размер потока : 1001 Мбайт (8%)
Заголовок : DTS 2.0 / 1536 kbps / Original
Язык : English
Default : Нет
Forced : Нет
Меню
00:00:00.000 : en:(01)00:00:00:000
00:03:48.228 : en:(02)00:03:48:228
00:05:17.317 : en:(03)00:05:17:317
00:10:56.155 : en:(04)00:10:56:155
00:15:01.358 : en:(05)00:15:01:358
00:19:34.965 : en:(06)00:19:34:965
00:25:41.498 : en:(07)00:25:41:498
00:34:43.956 : en:(08)00:34:43:956
00:39:51.931 : en:(09)00:39:51:931
00:41:25.274 : en:(10)00:41:25:274
00:47:09.076 : en:(11)00:47:09:076
00:55:25.697 : en:(12)00:55:25:697
01:03:46.239 : en:(13)01:03:46:239
01:07:02.059 : en:(14)01:07:02:059
01:12:45.486 : en:(15)01:12:45:486
01:19:27.429 : en:(16)01:19:27:429
01:24:26.936 : en:(17)01:24:26:936
01:32:44.600 : en:(18)01:32:44:600

[Цитировать]



Показать сообщения:    

Текущее время: 04-Дек 11:12

Часовой пояс: UTC + 3


Вы не можете начинать темы
Вы не можете отвечать на сообщения
Вы не можете редактировать свои сообщения
Вы не можете удалять свои сообщения
Вы не можете голосовать в опросах
Вы не можете прикреплять файлы к сообщениям
Вы не можете скачивать файлы

!ВНИМАНИЕ!
Сайт не предоставляет электронные версии произведений, а занимается лишь коллекционированием и каталогизацией ссылок, присылаемых и публикуемых на форуме нашими читателями. Если вы являетесь правообладателем какого-либо представленного материала и не желаете, чтобы ссылка на него находилась в нашем каталоге, свяжитесь с нами, и мы незамедлительно удалим ее. Файлы для обмена на трекере предоставлены пользователями сайта, и администрация не несет ответственности за их содержание. Просьба не заливать файлы, защищенные авторскими правами, а также файлы нелегального содержания!