[ Сегодня идет свободное скачивание без начисления Download ]


Статистика раздачи
Нет
 
   
 
Top  
 
 
-Короли Лондона / Lost in Italy (2013) WEB-DLRip- Год выпуска: 2013
Производство: Великобритания
Жанр: Триллер, Детектив
Перевод: Многоголосый закадровый
Субтитры: Отсутствуют
Описание фильма:
Тони — сын известного гангстера, который с малых лет привык промышлять тем же, что и его отец. Однажды он просыпается в заброшенном сельском домике, его одежда в крови и сам он понятия не имеет, как туда попал и, что случилось до этого. Кажется, эта деревушка затерялась во времени, поблизости нет ни одного телефона. Тони встречается лишь один человек по имени Франческо. Тот рассказывает ему свою историю и просит помочь его семье. Что-то в его истории находит отклик в сердце Тони. Перед ним впервые встает выбор, помочь незнакомому человеку или решать собственные проблемы.
Режиссер: Антонио Симончини
Актеры: Глен Мерфи, Рэй Уинстон, Джованни Капальбо, Серена Иансити, Кристофер Хатрэлл, Кассиус Теренс Мерфи, Глин Гримстед, Хелен Лэтэм, Джо Иган, Марк Адамс
Продолжительность: 01:32:07
Качество видео: WEB-DLRip
Видеокодек: Xvid
Битрейт видео: ~1871 kb/s
Размер кадра: 720x304
Аудио #1: AC3, 192 kb/s (2 ch) Русский
Аудио #2: AC3, 192 kb/s (2 ch) АнглийскийСкриншоты:
[th]http://img.torrentsclub.org/di/HRSV/1ff37f7e2ed1ce9...9b70d6c.png[/th] [th]http://img.torrentsclub.org/di/EQCB/4b75db88629ab61...63657f6.png[/th] [th]http://img.torrentsclub.org/di/QI1J/7c9b6d1191960e1...deb0525.png[/th] [th]http://img.torrentsclub.org/di/2V6P/c06af7007ac974e...bb257d5.png[/th]

MI

Полное имя : Koroli.Londona.2013.P.WEBDLRip.1.46Gb.avi
Формат : AVI
Формат/Информация : Audio Video Interleave
Размер файла : 1,46 Гбайт
Продолжительность : 1 ч. 32 м.
Общий поток : 2271 Кбит/сек
Программа кодирования : VirtualDubMod 1.5.10.2 (build 2540/release)
Библиотека кодирования : VirtualDubMod build 2540/release
Видео
Идентификатор : 0
Формат : MPEG-4 Visual
Профиль формата : Advanced Simple@L5
Параметр BVOP формата : 2
Параметр QPel формата : Нет
Параметр GMC формата : Без точки перехода
Параметр матрицы формата : Default (MPEG)
Идентификатор кодека : XVID
Идентификатор кодека/Подсказка : XviD
Продолжительность : 1 ч. 32 м.
Битрейт : 1873 Кбит/сек
Ширина : 720 пикселей
Высота : 304 пикселя
Соотношение сторон : 2,35:1
Частота кадров : 25,000 кадров/сек
Цветовое пространство : YUV
Субдискретизация насыщенности : 4:2:0
Битовая глубина : 8 бит
Тип развёртки : Прогрессивная
Метод сжатия : С потерями
Бит/(Пиксели*Кадры) : 0.342
Размер потока : 1,21 Гбайт (82%)
Библиотека кодирования : XviD 1.2.1 (UTC 2008-12-04)
Аудио #1
Идентификатор : 1
Формат : AC-3
Формат/Информация : Audio Coding 3
Расширение режима : CM (complete main)
Параметр Endianness формата : Big
Идентификатор кодека : 2000
Продолжительность : 1 ч. 32 м.
Вид битрейта : Постоянный
Битрейт : 192 Кбит/сек
Каналы : 2 канала
Расположение каналов : Front: L R
Частота : 48,0 КГц
Битовая глубина : 16 бит
Метод сжатия : С потерями
Размер потока : 127 Мбайт (8%)
Выравнивание : Разделение по промежуткам
Продолжительность промежутка : 40 мс. (1,00 видеокадр)
Время предзагрузки промежутка : 500 мс.
Аудио #2
Идентификатор : 2
Формат : AC-3
Формат/Информация : Audio Coding 3
Расширение режима : CM (complete main)
Параметр Endianness формата : Big
Идентификатор кодека : 2000
Продолжительность : 1 ч. 32 м.
Вид битрейта : Постоянный
Битрейт : 192 Кбит/сек
Каналы : 2 канала
Расположение каналов : Front: L R
Частота : 48,0 КГц
Битовая глубина : 16 бит
Метод сжатия : С потерями
Размер потока : 127 Мбайт (8%)
Выравнивание : Разделение по промежуткам
Продолжительность промежутка : 40 мс. (1,00 видеокадр)
Время предзагрузки промежутка : 500 мс.
Время раздачи: 16:00-02:00

[Цитировать]



Показать сообщения:    

Текущее время: 09-Дек 20:29

Часовой пояс: UTC + 3


Вы не можете начинать темы
Вы не можете отвечать на сообщения
Вы не можете редактировать свои сообщения
Вы не можете удалять свои сообщения
Вы не можете голосовать в опросах
Вы не можете прикреплять файлы к сообщениям
Вы не можете скачивать файлы

!ВНИМАНИЕ!
Сайт не предоставляет электронные версии произведений, а занимается лишь коллекционированием и каталогизацией ссылок, присылаемых и публикуемых на форуме нашими читателями. Если вы являетесь правообладателем какого-либо представленного материала и не желаете, чтобы ссылка на него находилась в нашем каталоге, свяжитесь с нами, и мы незамедлительно удалим ее. Файлы для обмена на трекере предоставлены пользователями сайта, и администрация не несет ответственности за их содержание. Просьба не заливать файлы, защищенные авторскими правами, а также файлы нелегального содержания!