[ Сегодня идет свободное скачивание без начисления Download ]


Статистика раздачи
Нет
 
   
 
 
 
- Год выпуска: 2010
Страна: Япония
Жанр: комедия, школа
Продолжительность: 13 эп. по 25 мин.-Перевод:
  • русские субтитры от Antravoco & Primera Cuadrilla [1-5]
    переводчик/оформление: Kekcelt, переводчик/редактор: Octagon

  • русские субтитры от Harusame Team & Vik Pol [6-13]
    переводчики: Broken1334, N1K1, Someone, Ryuji, редакторы: Disorder, Vik Pol, zeeros21, тайм-код/оформление: powerwar
-Режиссер: Канадзава Хиромицу
Студия: GoHands-Описание:
Даже благополучную Японию не миновал демографический кризис! В итоге правительство приняло новый курс, и вот частная академия Осай, женская школа со старинными традициями, переходит на совместное обучение. В первый год эксперимента соотношение парней и девушек едва достигло 1:18, что в полной мере почувствовал Такатоси Цуда, соблазнившийся тем, что новая школа совсем рядом с домом. По закону жанра, свежеизбранный президент школьного совета Сина Амакаса как раз решила ввести в состав представителя местного гендерного меньшинства. Цуда попался под руку – так все и случилось.
Теперь главный герой трудится на благо академии вместе с тремя другими членами совета – прямодушной, но слегка закомплексованной Синой, опасной шутницей Арией и вспыльчивой гением-коротышкой Судзу. Поняв, что новичок – парень не злой и спокойный, коллеги перестали стесняться и дали ему узнать, «о чем говорят женщины», к тому же имеющие о мужском поле весьма своеобразные представления. Только твердый характер и опыт жизни с младшей сестренкой позволяют бедняге Такатоси сохранить душевное здоровье среди будней школьного совета, когда с прелестных губок иногда срывается такое, что хоть стой, хоть падай. А еще жаль, что интерес трех девушек к главному герою чисто академический!
© Hollow, World Art-Качество: BDRip
Энкод: Winter - RG Pantheon
Тип видео: без хардсаба
Формат: mkv
Видео: x264 (Hi10p), 1280x720, ~2700 Kbps, 23.976 fps
Аудио JAP: Vorbis, 48000Hz, 256 Kbps, 2ch
Аудио RUS 1: AAC, 48000Hz, 192 Kbps, 2ch (внешними файлами)
Аудио RUS 2: AC3, 48000Hz, 192 Kbps, 2ch (внешними файлами)
Аудио RUS 3: AAC, 48000Hz, 128 Kbps, 2ch (внешними файлами)-

Список озвучек в раздаче

  • одноголосая (муж.) от Lupin (Animedia)
  • одноголосая (муж.) от Ryc99 (ARRU)
  • двухголосая (жен./муж.) от Persona99 & MaxDamage (GetSmart) [1-6]

Список эпизодов

01. Under the Cherry Tree
Will I Get This Feeling Every Time? For Now, Let's Try Stripping
02. By the Way, Are You S or M?
In That Case I'll Be Testing That Strength of Yours
This Thing of Yours That Sparkles Brightly. What Is It?
03. Even I Admit It's Well Wrapped
President! Open It Wider! You Had Enough Already!?
04. So I Dress Untidy In Invisible Places
Congratulations
So It's Fine For Me This Way
05. Isn`t It Hard On Your Ass?
I Need More Enjoyment
I Should Run To School With Bread In My Mouth, Too!
06. Tsuda-kun Won`t Read It, He`ll Use It!
If There is an Uke, There Has to Be a Seme! No, Please Wear Clothes
07. It`s Getting Bigger Boys Love With Tsuda-kun
08. Oh?! You`re the Strawberry Panties from this Morning!
Virgin Sex Might Become Popular
I`ll Fight in Place of the Others!
09. How Much Will You Pay?
I See! We Have Nothing to Do! With That!
Venezuela
10. The Maid Saw... Ojou-sama`s Lewd
I Don`t Have Any Hidden Settings Like That
If You Are Alright With Me, Then I`ll Go Out With You
11. I`ve Never Seen Natural Phenomena Like This
Should I Have My Underwear On?
Santa`s Sexual Desires
12. It`s Universally Embarrassing
School Uniforms are Best When Half Worn
Wasn`t it Your Own Version of Exhibition Play?
13. Seitokai Yakuindomo! Good Work!

Подробные тех. данные

Общее
Уникальный идентификатор : 188275048445371807351702900840010846021 (0x8DA474925AB59CC992EA9D53E8A78F45)
Полное имя : W:\ANIMATION\720p\Seitokai Yakuindomo [BD] [720p]\[Winter] Seitokai Yakuindomo 01 [BDrip 1280x720 x264 Vorbis].mkv
Формат : Matroska
Версия формата : Version 2
Размер файла : 702 Мбайт
Продолжительность : 23 м.
Режим общего битрейта : Переменный
Общий поток : 4154 Кбит/сек
Дата кодирования : UTC 2012-11-27 14:07:29
Программа кодирования : mkvmerge v2.9.8 ('C'est le bon') built on Aug 13 2009 12:49:06
Библиотека кодирования : libebml v0.7.7 + libmatroska v0.8.1
Видео
Идентификатор : 1
Формат : AVC
Формат/Информация : Advanced Video Codec
Профиль формата : High 10@L4.1
Параметр CABAC формата : Да
Параметр ReFrames формата : 9 кадров
Идентификатор кодека : V_MPEG4/ISO/AVC
Продолжительность : 23 м.
Битрейт : 3815 Кбит/сек
Ширина : 1280 пикселей
Высота : 720 пикселей
Соотношение сторон : 16:9
Режим частоты кадров : Постоянный
Частота кадров : 23,976 кадра/сек
Цветовое пространство : YUV
Субдискретизация насыщенности : 4:2:0
Битовая глубина : 10 бит
Тип развёртки : Прогрессивная
Бит/(Пиксели*Кадры) : 0.173
Размер потока : 644 Мбайт (92%)
Библиотека кодирования : x264 core 129 r2230 1cffe9f
Настройки программы : cabac=1 / ref=9 / deblock=1:-2:-2 / analyse=0x3:0x133 / me=umh / subme=9 / psy=1 / psy_rd=0.90:0.00 / mixed_ref=1 / me_range=24 / chroma_me=1 / trellis=2 / 8x8dct=1 / cqm=0 / deadzone=21,11 / fast_pskip=1 / chroma_qp_offset=-2 / threads=6 / lookahead_threads=1 / sliced_threads=0 / nr=0 / decimate=0 / interlaced=0 / bluray_compat=0 / constrained_intra=0 / bframes=8 / b_pyramid=2 / b_adapt=2 / b_bias=0 / direct=1 / weightb=1 / open_gop=0 / weightp=2 / keyint=250 / keyint_min=23 / scenecut=40 / intra_refresh=0 / rc=crf / mbtree=0 / crf=15.7 / qcomp=0.70 / qpmin=9 / qpmax=40 / qpstep=4 / ip_ratio=1.40 / pb_ratio=1.30 / aq=1:0.90
Default : Нет
Forced : Нет
Аудио
Идентификатор : 2
Формат : Vorbis
Параметр Floor формата : 1
Идентификатор кодека : A_VORBIS
Продолжительность : 23 м.
Вид битрейта : Переменный
Битрейт : 256 Кбит/сек
Каналы : 2 канала
Частота : 48,0 КГц
Метод сжатия : С потерями
Размер потока : 43,2 Мбайт (6%)
Библиотека кодирования : libVorbis (Schaufenugget) (20101101 (Schaufenugget))
Язык : Japanese
Default : Да
Forced : Нет

[Цитировать]



Показать сообщения:    

Текущее время: 02-Дек 22:53

Часовой пояс: UTC + 3


Вы не можете начинать темы
Вы не можете отвечать на сообщения
Вы не можете редактировать свои сообщения
Вы не можете удалять свои сообщения
Вы не можете голосовать в опросах
Вы не можете прикреплять файлы к сообщениям
Вы не можете скачивать файлы

!ВНИМАНИЕ!
Сайт не предоставляет электронные версии произведений, а занимается лишь коллекционированием и каталогизацией ссылок, присылаемых и публикуемых на форуме нашими читателями. Если вы являетесь правообладателем какого-либо представленного материала и не желаете, чтобы ссылка на него находилась в нашем каталоге, свяжитесь с нами, и мы незамедлительно удалим ее. Файлы для обмена на трекере предоставлены пользователями сайта, и администрация не несет ответственности за их содержание. Просьба не заливать файлы, защищенные авторскими правами, а также файлы нелегального содержания!