[ Сегодня идет свободное скачивание без начисления Download ]


Статистика раздачи
Нет
 
   
 
 
 
Триган / Trigun- Страна: Япония
Год выпуска: 1998 г.
Жанр: приключения, комедия, драма, фантастика
Тип: TV
Продолжительность: 26 эп. по ~24 мин.
Режиссер: Нисимура Сатоси
Студия: MAD house
-Описание: На пустынной планете, куда люди переселились с Земли, в пыльных городах, в салунах и на площадях, среди простых жителей и опасных бандитов давно ходит слух о человеке-катастрофе – Ваше Паникере. Он появляется ниоткуда и оставляет после себя развалины. Однажды он полностью уничтожил целый город. Говорят, он беспощаден, и его невозможно убить. За его голову назначена огромная награда в 60 миллиардов. А каковы убытки?
Страховое агентство Бернарделли, похороненное под лавиной исков, посылает двух своих лучших агентов Мерил Страйф и Милли Томпсон с заданием: найти легендарного преступника и разобраться с возникшей ситуацией. Девушки справляются с первой частью, но остановить разрушительные действия Ваша они не в состоянии.
На самом деле Ваш – добрый улыбчивый недотёпа, обожающий пончики. Он пытается нести окружающим философию «мира и любви», но его встречают пулями. Человек-Ураган делает всё, чтобы избежать насилия, но единственное, что ему удаётся – это предотвратить человеческие жертвы. В бою он превращается в хладнокровного воина, однако это не делает его счастливым. А по его следу идут безжалостные убийцы, всякий раз отнимающие у Ваша надежду на спокойную жизнь...
© Расселл Д. Джонс, World Art
-Качество: DVDRip [Yurasyk]
Формат видео: MKV
Видео: x264 (AVC High10@L4.0), 10bits, 960x720, ~5200 Kbps, vfr
Аудио: Jap, AC3 , 48000Hz, 448 Kbps, 2ch
Аудио 2(Ext): Rus, MP3 , 48000Hz, 128 Kbps, 2ch - любительская мужская (одноголосная) - Digital Force
Аудио 3(Ext): Rus, MP3 , 44100Hz, 128 Kbps, 2ch - профессиональная (дубляж) - М-А
Аудио 4(Ext): Ukr, AC3 , 48000Hz, 192 Kbps, 2ch - профессиональная (двухголосная) - Катерина Буцька та Ярослав Чорненький
Субтитры: Rus, ASS, внешними файлами, перевод - Schtirlitz / Veacheslav420 aka Nomad
-

Подробные тех. данные

General
Unique ID : 219845714460616594268568787892661468719 (0xA564BE951802D940AB66E209BA913E2F)
Complete name : H:\Anime\Trigun\Trigun - 01 [DVDRip 960x720 x264 AC3].mkv
Format : Matroska
File size : 916 MiB
Duration : 24mn 37s
Overall bit rate : 5 200 Kbps
Encoded date : UTC 2012-03-18 15:47:22
Writing application : mkvmerge v5.3.0 ('I could have danced') built on Feb 9 2012 10:38:07
Writing library : libebml v1.2.3 + libmatroska v1.3.0
Video
ID : 1
Format : AVC
Format/Info : Advanced Video Codec
Format profile : High 10@L4.0
Format settings, CABAC : Yes
Format settings, ReFrames : 9 frames
Codec ID : V_MPEG4/ISO/AVC
Duration : 24mn 37s
Bit rate : 4 649 Kbps
Width : 960 pixels
Height : 720 pixels
Display aspect ratio : 4:3
Frame rate : 23.976 fps
Color space : YUV
Chroma subsampling : 4:2:0
Bit depth : 10 bits
Scan type : Progressive
Bits/(Pixel*Frame) : 0.281
Stream size : 819 MiB (89%)
Writing library : x264 core 120 r2164+656 2ff844c
Encoding settings : cabac=1 / ref=9 / deblock=1:0:-1 / analyse=0x3:0x113 / me=umh / subme=11 / psy=1 / fade_compensate=0.00 / psy_rd=1.00:0.10 / mixed_ref=1 / me_range=32 / chroma_me=1 / trellis=2 / 8x8dct=1 / cqm=0 / deadzone=21,11 / fast_pskip=0 / chroma_qp_offset=-3 / threads=12 / sliced_threads=0 / nr=0 / decimate=1 / interlaced=0 / bluray_compat=0 / constrained_intra=0 / fgo=0 / bframes=16 / b_pyramid=2 / b_adapt=2 / b_bias=0 / direct=3 / weightb=1 / open_gop=0 / weightp=2 / keyint=240 / keyint_min=24 / scenecut=40 / intra_refresh=0 / rc_lookahead=60 / rc=crf / mbtree=0 / crf=16.0 / qcomp=0.60 / qpmin=0 / qpmax=81 / qpstep=4 / vbv_maxrate=50000 / vbv_bufsize=62500 / crf_max=0.0 / nal_hrd=none / ip_ratio=1.40 / pb_ratio=1.30 / aq=3:0.70
Color primaries : BT.709-5, BT.1361, IEC 61966-2-4, SMPTE RP177
Transfer characteristics : BT.709-5, BT.1361
Matrix coefficients : BT.709-5, BT.1361, IEC 61966-2-4 709, SMPTE RP177
Audio
ID : 2
Format : AC-3
Format/Info : Audio Coding 3
Mode extension : CM (complete main)
Codec ID : A_AC3
Duration : 24mn 37s
Bit rate mode : Constant
Bit rate : 448 Kbps
Channel(s) : 2 channels
Channel positions : Front: L R
Sampling rate : 48.0 KHz
Bit depth : 16 bits
Compression mode : Lossy
Stream size : 78.9 MiB (9%)
Menu
00:00:00.000 : :Opening
00:01:29.965 : :A-part
00:12:26.412 : :Eyecatch
00:12:38.466 : :B-part
00:22:37.439 : :Ending
00:24:07.446 : :Preview

Список эпизодов

01. The $$60,000,000,000.00 Man
02. Truth of Mistake
03. Peace Maker
04. Love and Peace
05. Hard Puncher
06. Lost July
07. B.D.N.
08. And Between The Wasteland And Sky
09. Murder Machine
10. Quick Draw
11. Escape From Pain
12. Diablo
13. Vash the Stampede
14. Little Arcadia
15 Demon's Eye
16. Fifth Moon
17. Rem Saverem
18. Goodbye For Now
19. Hang Fire
20. Flying Ship
21. Out of Time
22. Alternative
23. Paradise
24. Sin
25. Live Through
26. Under The Sky So Blue

[Цитировать]



Показать сообщения:    

Текущее время: 07-Дек 17:24

Часовой пояс: UTC + 3


Вы не можете начинать темы
Вы не можете отвечать на сообщения
Вы не можете редактировать свои сообщения
Вы не можете удалять свои сообщения
Вы не можете голосовать в опросах
Вы не можете прикреплять файлы к сообщениям
Вы не можете скачивать файлы

!ВНИМАНИЕ!
Сайт не предоставляет электронные версии произведений, а занимается лишь коллекционированием и каталогизацией ссылок, присылаемых и публикуемых на форуме нашими читателями. Если вы являетесь правообладателем какого-либо представленного материала и не желаете, чтобы ссылка на него находилась в нашем каталоге, свяжитесь с нами, и мы незамедлительно удалим ее. Файлы для обмена на трекере предоставлены пользователями сайта, и администрация не несет ответственности за их содержание. Просьба не заливать файлы, защищенные авторскими правами, а также файлы нелегального содержания!