[ Сегодня идет свободное скачивание без начисления Download ]


Статистика раздачи
Нет
 
   
 
 
 
Карас / Karas -Страна: Япония
Год выпуска: 2005 г.
Жанр: Приключения, триллер, мистика
Тип: OVA
Продолжительность: 6 эп, ~30 мин. серия
Режиссер: Сато Кэйити
Перевод: Профессиональный многоголосый, закадровый (MC Int.)
Русские субтитры: есть (ARiS)
-Описание: Миры людей и демонов враждовали друг с другом с незапамятных времен... И кажется, столь же долго девушка Юри и ее слуга Карас старались поддерживать между ними спокойствие и порядок. Однако люди окончательно потеряли страх перед тьмой. Взбешенный людским упрямством, Карас изменил своим прежним соратникам, взял себе имя Эко и повел группу механизированных демонов войной против человеческой расы. Тем временем детектив Кьюр, глава отдела демонологических преступлений, начинает расследование ряда таинственных убийств, предположительно совершенных неким водным монстром; а демон Ню, прибывший в город сразиться с Эко, сталкивается с этим водным монстром и узнает, что на самом деле тот сменил облик и выдает себя за великого воина Караса...-Качество: BDRip 1080p
Тип релиза: Без хардсаба
Формат видео: MKV
Видео: MPEG4 Video (H264) 1920x1080 23.976fps ~12.0 Mbps (собственный рип)
Аудио №1: Dolby AC3 48000Hz 6ch 448 Kbps (Russian);
Аудио №2: DTS 48000Hz 6ch 1510 Kbps (Japanese)
Субтитры: Russian (srt)
-

Подробные тех. данные

General
Format : Matroska
Format version : Version 2
File size : 2.92 GiB
Duration : 30mn 1s
Overall bit rate : 13.9 Mbps
Movie name : Karas OVA, ep.1 - Ouverture
Encoded date : UTC 2012-01-11 19:59:30
Writing application : mkvmerge v4.9.1 ('Ich will') сборка от Jul 11 2011 23:53:15
Writing library : libebml v1.2.1 + libmatroska v1.1.1
Video
ID : 1
Format : AVC
Format/Info : Advanced Video Codec
Format profile : High@L4.1
Format settings, CABAC : Yes
Format settings, ReFrames : 4 frames
Codec ID : V_MPEG4/ISO/AVC
Duration : 30mn 1s
Bit rate : 12.0 Mbps
Width : 1 920 pixels
Height : 1 080 pixels
Display aspect ratio : 16:9
Frame rate : 23.976 fps
Color space : YUV
Chroma subsampling : 4:2:0
Bit depth : 8 bits
Scan type : Progressive
Bits/(Pixel*Frame) : 0.241
Stream size : 2.45 GiB (84%)
Writing library : x264 core 116 r2074 2641b9e
Encoding settings : cabac=1 / ref=4 / deblock=1:-3:-3 / analyse=0x3:0x113 / me=umh / subme=10 / psy=1 / psy_rd=1.00:0.00 / mixed_ref=1 / me_range=32 / chroma_me=1 / trellis=2 / 8x8dct=1 / cqm=0 / deadzone=21,11 / fast_pskip=0 / chroma_qp_offset=-2 / threads=3 / sliced_threads=0 / nr=0 / decimate=0 / interlaced=0 / bluray_compat=0 / constrained_intra=0 / bframes=3 / b_pyramid=2 / b_adapt=2 / b_bias=0 / direct=3 / weightb=1 / open_gop=0 / weightp=2 / keyint=250 / keyint_min=23 / scenecut=40 / intra_refresh=0 / rc_lookahead=50 / rc=2pass / mbtree=1 / bitrate=11969 / ratetol=1.0 / qcomp=0.60 / qpmin=10 / qpmax=51 / qpstep=4 / cplxblur=20.0 / qblur=0.5 / ip_ratio=1.40 / aq=1:1.00
Language : Japanese
Audio #1
ID : 2
Format : AC-3
Format/Info : Audio Coding 3
Mode extension : CM (complete main)
Codec ID : A_AC3
Duration : 30mn 1s
Bit rate mode : Constant
Bit rate : 448 Kbps
Channel(s) : 6 channels
Channel positions : Front: L C R, Side: L R, LFE
Sampling rate : 48.0 KHz
Bit depth : 16 bits
Compression mode : Lossy
Stream size : 96.2 MiB (3%)
Title : AC3 5.1 448 Kbps [Многоголосый, MC Int.]
Language : Russian
Audio #2
ID : 3
Format : DTS
Format/Info : Digital Theater Systems
Codec ID : A_DTS
Duration : 30mn 1s
Bit rate mode : Constant
Bit rate : 1 510 Kbps
Channel(s) : 6 channels
Channel positions : Front: L C R, Side: L R, LFE
Sampling rate : 48.0 KHz
Bit depth : 24 bits
Compression mode : Lossy
Stream size : 324 MiB (11%)
Title : DTS 5.1 1510 Kbps [Оригинал]
Language : Japanese
Text
ID : 4
Format : UTF-8
Codec ID : S_TEXT/UTF8
Codec ID/Info : UTF-8 Plain Text
Language : Russian

Список эпизодов

01. Ouverture
02. Inferno
03. Revive
04. Sacrifice
05. Fantasy
06. True Legend

[Цитировать]



Показать сообщения:    

Текущее время: 10-Дек 23:30

Часовой пояс: UTC + 3


Вы не можете начинать темы
Вы не можете отвечать на сообщения
Вы не можете редактировать свои сообщения
Вы не можете удалять свои сообщения
Вы не можете голосовать в опросах
Вы не можете прикреплять файлы к сообщениям
Вы не можете скачивать файлы

!ВНИМАНИЕ!
Сайт не предоставляет электронные версии произведений, а занимается лишь коллекционированием и каталогизацией ссылок, присылаемых и публикуемых на форуме нашими читателями. Если вы являетесь правообладателем какого-либо представленного материала и не желаете, чтобы ссылка на него находилась в нашем каталоге, свяжитесь с нами, и мы незамедлительно удалим ее. Файлы для обмена на трекере предоставлены пользователями сайта, и администрация не несет ответственности за их содержание. Просьба не заливать файлы, защищенные авторскими правами, а также файлы нелегального содержания!