[ Сегодня идет свободное скачивание без начисления Download ]


Статистика раздачи
Нет
 
   
 
Top  
 
 
-Остров везения (2013) BDRip [1080p] - Год выпуска: 2013
Производство: Россия
Жанр: Комедия
Дата мировой премьеры: 5 декабря 2013
Дата российской премьеры: 5 декабря 2013, «Каропрокат»
Дата выхода DVD релиза: 14 января 2014, «Lizard Cinema Trade»
Описание фильма:Тихоокеанский лайнер. Полуобнаженные красотки, участвующие в конкурсе красоты. Шампанское и голубой океан… О таком бывшая звезда телевидения, а ныне ведущий дешевых свадеб, даже и не мечтал. Однако круиз мечты неожиданно прервется цепью невероятных событий. И наш герой окажется на необитаемом острове, в окружении трех финалисток конкурса — принципиальной стервы, паникерши и классической блондинки. Что делать? Ведь лишившись возможности выиграть вожделенную корону, девушки его наверняка порвут на кусочки…. Значит надо продолжать конкурс! Сделав вид, что так задумано, Роман начинает представление. Он убеждает девиц, что на острове понатыканы скрытые камеры и микрофоны, шоу выводится в эфир одного из главных каналов, и вся страна теперь следит за финалом конкурса красоты! И всего то нужно — пройти пару испытаний под прицелом вон того ближайшего кокоса… то есть камеры. И пока девушки включились в соревнования, наш герой ищет путь спасения с острова…Режиссер: Кирилл Козлов
Продюсер: Георгий Малков, Сарик Андреасян, Гевонд Андреасян
Актеры: Роман Юнусов, Светлана Ходченкова, Агния Дитковските, Анна Хилькевич, Алексей Чумаков, Татьяна Орлова, Даша Астафьева, Юлия Гришина, Александр Сазонов, Мария Кравцова
Продолжительность: 01:22:25
Качество видео: BDRip [1080p]
Перевод: Не требуется
Субтитры: Отсутствуют

Видеокодек: MPEG-4 AVC/H.264
Битрейт видео: ~15300 kb/s
Размер кадра: 1920x816
Аудиокодек: AC3 5.1
Битрейт аудио: 640 kb/s
Сэмпл: Скачать

MediaInfo:

Общее
Уникальный идентификатор : 246175057651536677625913987732779840330 (0xB933976D263302F093B9F6AAD5AC334A)
Полное имя : D:\Фильмы\Ostrov.vezeniya.2013.O.BDRip.1080p.mkv
Формат : Matroska
Версия формата : Version 2
Размер файла : 9,36 Гбайт
Продолжительность : 1 ч. 22 м.
Общий поток : 16,3 Мбит/сек
Дата кодирования : UTC 2014-01-15 01:08:56
Программа кодирования : mkvmerge v5.8.0 ('No Sleep / Pillow') built on Sep 2 2012 15:37:04
Библиотека кодирования : libebml v1.2.3 + libmatroska v1.3.0
Видео
Идентификатор : 1
Формат : AVC
Формат/Информация : Advanced Video Codec
Профиль формата : High@L4.1
Параметр CABAC формата : Да
Параметр ReFrames формата : 4 кадра
Идентификатор кодека : V_MPEG4/ISO/AVC
Продолжительность : 1 ч. 22 м.
Битрейт : 15,3 Мбит/сек
Ширина : 1920 пикселей
Высота : 816 пикселей
Соотношение сторон : 2,35:1
Режим частоты кадров : Постоянный
Частота кадров : 24,000 кадра/сек
Цветовое пространство : YUV
Субдискретизация насыщенности : 4:2:0
Битовая глубина : 8 бит
Тип развёртки : Прогрессивная
Бит/(Пиксели*Кадры) : 0.407
Размер потока : 8,80 Гбайт (94%)
Библиотека кодирования : x264 core 140 r2377+40 929f149 tMod [8-bit@all X86_64]
Настройки программы : cabac=1 / ref=2 / deblock=1:0:0 / analyse=0x3:0x133 / me=hex / subme=2 / psy=1 / fade_compensate=0.00 / psy_rd=1.00:0.00 / mixed_ref=1 / me_range=16 / chroma_me=1 / trellis=2 / 8x8dct=1 / cqm=0 / deadzone=21,11 / fast_pskip=0 / chroma_qp_offset=0 / threads=12 / lookahead_threads=6 / sliced_threads=0 / nr=0 / decimate=1 / interlaced=0 / bluray_compat=0 / constrained_intra=0 / fgo=0 / bframes=2 / b_pyramid=2 / b_adapt=2 / b_bias=0 / direct=1 / weightb=1 / open_gop=0 / weightp=2 / keyint=240 / keyint_min=24 / scenecut=40 / intra_refresh=0 / rc=crf / mbtree=0 / crf=16.8000 / qcomp=0.60 / qpmin=0:0:0 / qpmax=69:69:69 / qpstep=4 / ip_ratio=1.40 / pb_ratio=1.30 / aq=1:0.80 / aq-sensitivity=10.00 / aq-factor=1.00:1.00:1.00 / aq2=0 / aq3=0
Язык : Russian
Default : Да
Forced : Нет
Аудио
Идентификатор : 2
Формат : AC-3
Формат/Информация : Audio Coding 3
Расширение режима : CM (complete main)
Параметр Endianness формата : Big
Идентификатор кодека : A_AC3
Продолжительность : 1 ч. 22 м.
Вид битрейта : Постоянный
Битрейт : 640 Кбит/сек
Каналы : 6 каналов
Расположение каналов : Front: L C R, Side: L R, LFE
Частота : 48,0 КГц
Битовая глубина : 16 бит
Метод сжатия : С потерями
Размер потока : 377 Мбайт (4%)
Язык : Russian
Default : Да
Forced : Нет
Скриншоты:

[Цитировать]



Показать сообщения:    

Текущее время: 08-Дек 21:17

Часовой пояс: UTC + 3


Вы не можете начинать темы
Вы не можете отвечать на сообщения
Вы не можете редактировать свои сообщения
Вы не можете удалять свои сообщения
Вы не можете голосовать в опросах
Вы не можете прикреплять файлы к сообщениям
Вы не можете скачивать файлы

!ВНИМАНИЕ!
Сайт не предоставляет электронные версии произведений, а занимается лишь коллекционированием и каталогизацией ссылок, присылаемых и публикуемых на форуме нашими читателями. Если вы являетесь правообладателем какого-либо представленного материала и не желаете, чтобы ссылка на него находилась в нашем каталоге, свяжитесь с нами, и мы незамедлительно удалим ее. Файлы для обмена на трекере предоставлены пользователями сайта, и администрация не несет ответственности за их содержание. Просьба не заливать файлы, защищенные авторскими правами, а также файлы нелегального содержания!