[ Сегодня идет свободное скачивание без начисления Download ]


Статистика раздачи
Нет
 
   
 
Top  
 
 
-Захватывающее время / The Spectacular Now (2013) HDRip- Год выпуска: 2013
Производство: США, Andrew Lauren Productions (ALP), 21 Laps Entertainment, Global Produce
Жанр: Драма, Мелодрама, Комедия
Перевод: Одноголосый закадровый, любительскийемён Ващенко)
Субтитры: Отсутствуют
Дата мировой премьеры: 18 января 2013
Режиссер: Джеймс Понсольдт
Продюсер: Мишель Крумм, Эндрю Лорен, Шон Леви
Актеры: Майлз Теллер, Шейлин Вудли, Бри Ларсон, Масам Холден, Дайо Окенайи, Кайл Чандлер, Дженнифер Джейсон Ли, Ницци Файрес, Ава Лондон, Уитни Гойн
Описание фильма:
«Захватывающее время» (The Spectacular Now) – фильм о том, как популярный красавчик из школы вдруг начинает дружить с девочкой, которую принято считать школьным изгоем. Фильм «Захватывающее время» является экранизацией одноименного романа Тима Тэрпа. Картина удостоена специального приза жюри кинофестиваля Санденс в категории «Драматический фильм».
Рейтинг R17 - Детям до 17 лет обязательно присутствие родителей
Продолжительность: 01:35:03
Качество видео: HDRip [Рип с BDRip 720p]
Видеокодек: XviD
Битрейт видео: 1663 kb/s
Размер кадра: 720x304
Аудио #1: 48 kHz, AC3 Dolby Digital, 2/0 (L,R) ch, ~192 kbps (Русский) / VO
Аудио #2: 44.1 kHz, AC3 Dolby Digital, 3/2 (L,C,R,l,r) + LFE ch, ~192 kbps (Английский) / Оригинал

MI

Общее
Полное имя                               : D:\Раздачи\Zahvatyvajushhee.vremja.2013.HDRip.avi
Формат                                   : AVI
Формат/Информация                        : Audio Video Interleave
Размер файла                             : 1,37 Гбайт
Продолжительность                        : 1 ч. 35 м.
Общий поток                              : 2060 Кбит/сек
Программа кодирования                    : VirtualDubMod 1.5.10.2 (build 2540/release)
Библиотека кодирования                   : VirtualDubMod build 2540/release
Видео
Идентификатор                            : 0
Формат                                   : MPEG-4 Visual
Профиль формата                          : Advanced Simple@L5
Параметр BVOP формата                    : 2
Параметр QPel формата                    : Нет
Параметр GMC формата                     : Без точки перехода
Параметр матрицы формата                 : Default (H.263)
Идентификатор кодека                     : XVID
Идентификатор кодека/Подсказка           : XviD
Продолжительность                        : 1 ч. 35 м.
Битрейт                                  : 1663 Кбит/сек
Ширина                                   : 720 пикселей
Высота                                   : 304 пикселя
Соотношение сторон                       : 2,35:1
Частота кадров                           : 23,976 кадра/сек
Цветовое пространство                    : YUV
Субдискретизация насыщенности            : 4:2:0
Битовая глубина                          : 8 бит
Тип развёртки                            : Прогрессивная
Метод сжатия                             : С потерями
Бит/(Пиксели*Кадры)                      : 0.317
Размер потока                            : 1,10 Гбайт (81%)
Библиотека кодирования                   : XviD 1.2.1 (UTC 2008-12-04)
Аудио #1
Идентификатор                            : 1
Формат                                   : AC-3
Формат/Информация                        : Audio Coding 3
Расширение режима                        : CM (complete main)
Параметр Endianness формата              : Big
Идентификатор кодека                     : 2000
Продолжительность                        : 1 ч. 34 м.
Вид битрейта                             : Постоянный
Битрейт                                  : 192 Кбит/сек
Каналы                                   : 2 канала
Расположение каналов                     : Front: L R
Частота                                  : 48,0 КГц
Битовая глубина                          : 16 бит
Метод сжатия                             : С потерями
Размер потока                            : 130 Мбайт (9%)
Выравнивание                             : Разделение по промежуткам
Продолжительность промежутка             : 42  мс. (1,00 видеокадр)
Время предзагрузки промежутка            : 500  мс.
Аудио #2
Идентификатор                            : 2
Формат                                   : AC-3
Формат/Информация                        : Audio Coding 3
Расширение режима                        : CM (complete main)
Параметр Endianness формата              : Big
Идентификатор кодека                     : 2000
Продолжительность                        : 1 ч. 35 м.
Вид битрейта                             : Постоянный
Битрейт                                  : 192 Кбит/сек
Каналы                                   : 6 каналов
Расположение каналов                     : Front: L C R, Side: L R, LFE
Частота                                  : 44,1 КГц
Битовая глубина                          : 16 бит
Метод сжатия                             : С потерями
Размер потока                            : 131 Мбайт (9%)
Выравнивание                             : Разделение по промежуткам
Продолжительность промежутка             : 42  мс. (1,00 видеокадр)
Время предзагрузки промежутка            : 500  мс.
Скриншоты:[th]http://img.torrentsclub.org/di/KBTZ/2gkLa8v.jpg[/th] [th]http://img.torrentsclub.org/di/F43F/3LGiL5S.jpg[/th] [th]http://img.torrentsclub.org/di/01PG/sRkx8jq.jpg[/th] [th]http://img.torrentsclub.org/di/W4FI/yhRWTHF.jpg[/th] [th]http://img.torrentsclub.org/di/BVSL/zYJPvVh.jpg[/th]Время раздачи: 24/7,
до 5 скачавших.

[Цитировать]



Показать сообщения:    

Текущее время: 09-Дек 12:43

Часовой пояс: UTC + 3


Вы не можете начинать темы
Вы не можете отвечать на сообщения
Вы не можете редактировать свои сообщения
Вы не можете удалять свои сообщения
Вы не можете голосовать в опросах
Вы не можете прикреплять файлы к сообщениям
Вы не можете скачивать файлы

!ВНИМАНИЕ!
Сайт не предоставляет электронные версии произведений, а занимается лишь коллекционированием и каталогизацией ссылок, присылаемых и публикуемых на форуме нашими читателями. Если вы являетесь правообладателем какого-либо представленного материала и не желаете, чтобы ссылка на него находилась в нашем каталоге, свяжитесь с нами, и мы незамедлительно удалим ее. Файлы для обмена на трекере предоставлены пользователями сайта, и администрация не несет ответственности за их содержание. Просьба не заливать файлы, защищенные авторскими правами, а также файлы нелегального содержания!