[ Сегодня идет свободное скачивание без начисления Download ]


Статистика раздачи
Нет
 
   
 
Top  
 
 
Новый Человек-паук / The Amazing Spider-Man
Страна: США
Студия: Columbia Pictures, Laura Ziskin Productions, Marvel Enterprises
Жанр: фантастика, боевик, приключения
Год выпуска: 2012
Продолжительность: 02:16:17
Перевод: Профессиональный (дублированный) Blu-ray
Перевод 2: Авторский (одноголосый закадровый) Юрий Сербин
Перевод 3: Авторский (одноголосый закадровый) Андрей Гаврилов
Cубтитры: русские (forced, full, Commentary), английские (full, SDH, Commentary)
Оригинальная аудиодорожка: английский
Режиссер: Марк Уэбб / Marc Webb
В ролях: Эндрю Гарфилд, Эмма Стоун, Рис Иванс, Дэнис Лири, Мартин Шин, Салли Филд, Эмбет Дэвидц, Кэмпбелл Скотт, Ирфан Кхан, Крис Зилка, Макс Чарльз, С. Томас Хауэлл.
Описание: В детстве Питер Паркер был оставлен своими родителями, и поэтому воспитывался дядей и тётей. Шли годы, Питер был обычным примерным школьником, подвергался нападкам хулиганов и был влюблён в свою одноклассницу Гвен Стэйси, которая сама втайне отвечала ему взаимностью. Но после укуса генетически изменённого паука, Питер получает невероятные сверхспособности и его жизнь меняется навсегда.
Однако его не перестаёт мучить вопрос о том, что случилось с его родителями. Он знакомится с давним другом и партнёром своего отца — генетиком Куртом Коннорсом, который вместе с отцом Питера разрабатывал формулу регенерации. Питер помогает её закончить, а Коннорс, всю жизнь мечтавший восстановить свою правую руку, вводит формулу себе и становится Ящером. Осознавая свою вину, Питер начинает новую жизнь в образе таинственного супергероя Человека-паука и становится грозой преступников, одновременно пытаясь найти способ остановить Коннорса.
Сэмпл: http://yadi.sk/d/_jA09h0V5POFo
Тип релиза: BDRip 720p
Контейнер: MKV
Видео: MPEG-4 AVC / 5199 kbps / 1280x536 / 23,976 fps / 2,40:1 / High Profile 4.1
Аудио: Dolby Digital Audio Russian 640 kbps 5.1 / 48 kHz / 16 bits |Dub|
Аудио 2: DTS Audio Russian 5.1 / 48 kHz / 1536 kbps / 16-bit |Ю.Сербин|
Аудио 3: DTS Audio Russian 5.1 / 48 kHz / 1536 kbps / 16-bit |А.Гаврилов|
Аудио 4: DTS Audio English 5.1 / 48 kHz / 1536 kbps / 16-bit
Формат субтитров: softsub (SRT)

Видеоряд от RDK123

RELEASE iNFO:
SiZE.........:6.77 GBRUNTiME......:2:16:00
ViDEO:
CODEC........:x264,CRF,L4.1BiTRATE......:5199 KbpsRESOLUTiON...:1280x536FRAMERATE....:23.976 frames/sSUBTiTLES....:English, English(SDH), English(srt), English(Commentary Subtitles), Arabic, Bulgarian, Croatian,Czech, Estonian, Greek, Hebrew, Hungarian, Polish, Portuguese, Romanian, Icelandic, Latvian, Lithuanian, Russian,Serbian, Slovak, Slovenian, Turkish, Kazakh, UkrainiaCHAPTERS.....:Included
SOURCE 1.......:The Amazing Spider-Man 2012 1080p Blu-ray AVC DTS-HD MA 5.1-dawnbrit (main video, audio)SOURCE 2.......:The Amazing Spider-Man 2012 1080p Blu-ray AVC DTS-HD MA 5.1-RDK123 (audio Commentary,sub)ENCODER......:reaperdk123RELEASE.DATE....:28.05.2013
Note:Fillmargins was applied.
x264 info:
x264 [info]: frame I:2048 Avg QP:11.03 size:107146x264 [info]: frame P:44765 Avg QP:11.94 size: 51779x264 [info]: frame B:149243 Avg QP:12.99 size: 19315x264 [info]: consecutive B-frames: 3.0% 3.0% 6.9% 29.4% 16.4% 28.1% 5.9% 7.3%encoded 196056 frames, 6.38 fps, 5302.56 kb/s--Source vs RDK123--

MI

General
Complete name                    : F:\  -= Фильмы =-\Новый Человек-паук (2012. The Amazing Spider-Man) 720p.mkv
Format                           : Matroska
File size                        : 9.97 GiB
Duration                         : 2h 16mn
Overall bit rate                 : 10.5 Mbps
Movie name                       : The Amazing Spider-Man 2012 720p Release for RuTracker
Encoded date                     : UTC 2013-06-02 12:42:25
Writing application              : mkvmerge v4.9.1 ('Ich will') сборка от Jul 11 2011 23:53:15
Writing library                  : libebml v1.2.1 + libmatroska v1.1.1
Video
ID                               : 1
Format                           : AVC
Format/Info                      : Advanced Video Codec
Format profile                   : High@L4.1
Format settings, CABAC           : Yes
Format settings, ReFrames        : 10 frames
Muxing mode                      : Container profile=Unknown@4.1
Codec ID                         : V_MPEG4/ISO/AVC
Duration                         : 2h 16mn
Bit rate                         : 5 097 Kbps
Width                            : 1 280 pixels
Height                           : 536 pixels
Display aspect ratio             : 2.35:1
Frame rate                       : 23.976 fps
Color space                      : YUV
Chroma subsampling               : 4:2:0
Bit depth                        : 8 bits
Scan type                        : Progressive
Bits/(Pixel*Frame)               : 0.310
Stream size                      : 4.85 GiB (49%)
Title                            : The Amazing Spider-Man 2012 720p BluRay DTS x264-RDK123
Writing library                  : x264 core 130 r2273 b3065e6
Encoding settings                : cabac=1 / ref=10 / deblock=1:-3:-3 / analyse=0x3:0x113 / me=umh / subme=9 / psy=1 / psy_rd=0.90:0.00 / mixed_ref=1 / me_range=32 / chroma_me=1 / trellis=2 / 8x8dct=1 / cqm=0 / deadzone=21,11 / fast_pskip=0 / chroma_qp_offset=-2 / threads=6 / lookahead_threads=1 / sliced_threads=0 / nr=0 / decimate=0 / interlaced=0 / bluray_compat=0 / constrained_intra=0 / bframes=7 / b_pyramid=2 / b_adapt=2 / b_bias=0 / direct=3 / weightb=1 / open_gop=0 / weightp=2 / keyint=500 / keyint_min=23 / scenecut=40 / intra_refresh=0 / rc=crf / mbtree=0 / crf=15.0 / qcomp=0.80 / qpmin=0 / qpmax=50 / qpstep=4 / ip_ratio=1.30 / pb_ratio=1.20 / aq=1:0.90
Language                         : English
Color primaries                  : BT.709-5, BT.1361, IEC 61966-2-4, SMPTE RP177
Transfer characteristics         : BT.709-5, BT.1361
Matrix coefficients              : BT.709-5, BT.1361, IEC 61966-2-4 709, SMPTE RP177
Audio #1
ID                               : 2
Format                           : AC-3
Format/Info                      : Audio Coding 3
Mode extension                   : CM (complete main)
Codec ID                         : A_AC3
Duration                         : 2h 16mn
Bit rate mode                    : Constant
Bit rate                         : 640 Kbps
Channel(s)                       : 6 channels
Channel positions                : Front: L C R, Side: L R, LFE
Sampling rate                    : 48.0 KHz
Bit depth                        : 16 bits
Stream size                      : 624 MiB (6%)
Title                            : Дубляж, Blu-ray CEE
Language                         : Russian
Audio #2
ID                               : 3
Format                           : DTS
Format/Info                      : Digital Theater Systems
Codec ID                         : A_DTS
Duration                         : 2h 16mn
Bit rate mode                    : Constant
Bit rate                         : 1 510 Kbps
Channel(s)                       : 6 channels
Channel positions                : Front: L C R, Side: L R, LFE
Sampling rate                    : 48.0 KHz
Bit depth                        : 16 bits
Stream size                      : 1.44 GiB (14%)
Title                            : Юрий Сербин
Language                         : Russian
Audio #3
ID                               : 4
Format                           : DTS
Format/Info                      : Digital Theater Systems
Codec ID                         : A_DTS
Duration                         : 2h 16mn
Bit rate mode                    : Constant
Bit rate                         : 1 510 Kbps
Channel(s)                       : 6 channels
Channel positions                : Front: L C R, Side: L R, LFE
Sampling rate                    : 48.0 KHz
Bit depth                        : 16 bits
Stream size                      : 1.44 GiB (14%)
Title                            : Андрей Гаврилов
Language                         : Russian
Audio #4
ID                               : 5
Format                           : DTS
Format/Info                      : Digital Theater Systems
Codec ID                         : A_DTS
Duration                         : 2h 16mn
Bit rate mode                    : Constant
Bit rate                         : 1 510 Kbps
Channel(s)                       : 6 channels
Channel positions                : Front: L C R, Side: L R, LFE
Sampling rate                    : 48.0 KHz
Bit depth                        : 24 bits
Stream size                      : 1.44 GiB (14%)
Language                         : English
Text #1
ID                               : 6
Format                           : UTF-8
Codec ID                         : S_TEXT/UTF8
Codec ID/Info                    : UTF-8 Plain Text
Title                            : forced
Language                         : Russian
Text #2
ID                               : 7
Format                           : UTF-8
Codec ID                         : S_TEXT/UTF8
Codec ID/Info                    : UTF-8 Plain Text
Title                            : full
Language                         : Russian
Text #3
ID                               : 8
Format                           : UTF-8
Codec ID                         : S_TEXT/UTF8
Codec ID/Info                    : UTF-8 Plain Text
Title                            : Commentary
Language                         : Russian
Text #4
ID                               : 9
Format                           : UTF-8
Codec ID                         : S_TEXT/UTF8
Codec ID/Info                    : UTF-8 Plain Text
Title                            : full
Language                         : English
Text #5
ID                               : 10
Format                           : UTF-8
Codec ID                         : S_TEXT/UTF8
Codec ID/Info                    : UTF-8 Plain Text
Title                            : SDH
Language                         : English
Text #6
ID                               : 11
Format                           : UTF-8
Codec ID                         : S_TEXT/UTF8
Codec ID/Info                    : UTF-8 Plain Text
Title                            : Commentary
Language                         : English
Menu
00:00:00.000                     : :Chapter 01
00:07:45.923                     : :Chapter 02
00:14:39.670                     : :Chapter 03
00:22:57.542                     : :Chapter 04
00:32:58.226                     : :Chapter 05
00:41:25.065                     : :Chapter 06
00:48:42.502                     : :Chapter 07
00:55:10.932                     : :Chapter 08
01:03:17.293                     : :Chapter 09
01:12:29.011                     : :Chapter 10
01:17:51.750                     : :Chapter 11
01:24:38.948                     : :Chapter 12
01:34:04.555                     : :Chapter 13
01:42:59.548                     : :Chapter 14
01:52:16.354                     : :Chapter 15
02:00:52.912                     : :Chapter 16

Скриншоты


  • Дорожки №2,3 получены наложением чистого голоса на центр декодированного DTS-HD MA. thx: pyha
  • Спасибо пользователям HDCLUB - за перевод Ю.Сербина: Loki1982, denismgn1987, MyxAmoP, ultrajeka, tide, DaviD18_85, Gans437, ZeRoNe
  • Спасибо пользователям форума пират.ка - за перевод А.Гаврилова: shitman82, Kampfer161, farti, chef&chef, Guyver, Pain_70, dunhill200, lexal, Chistobaev, winwide, TvarYuri, Инкогнито, Джосс, SavineX, Letyoha3, eyrobot, edsz, avedon, volfgang77, Anatoliy555, Loki1982, hulahup, Dr. Destructo, murkon, gemini, pestel

[Цитировать]



Показать сообщения:    

Текущее время: 08-Дек 09:03

Часовой пояс: UTC + 3


Вы не можете начинать темы
Вы не можете отвечать на сообщения
Вы не можете редактировать свои сообщения
Вы не можете удалять свои сообщения
Вы не можете голосовать в опросах
Вы не можете прикреплять файлы к сообщениям
Вы не можете скачивать файлы

!ВНИМАНИЕ!
Сайт не предоставляет электронные версии произведений, а занимается лишь коллекционированием и каталогизацией ссылок, присылаемых и публикуемых на форуме нашими читателями. Если вы являетесь правообладателем какого-либо представленного материала и не желаете, чтобы ссылка на него находилась в нашем каталоге, свяжитесь с нами, и мы незамедлительно удалим ее. Файлы для обмена на трекере предоставлены пользователями сайта, и администрация не несет ответственности за их содержание. Просьба не заливать файлы, защищенные авторскими правами, а также файлы нелегального содержания!