[ Сегодня идет свободное скачивание без начисления Download ]


Статистика раздачи
Нет
 
   
 
Top  
 
 
Робот и Фрэнк / Robot & Frank Страна: США
Жанр: фантастика, драма, комедия, криминал
Год выпуска: 2012
Продолжительность: 01:29:00
Перевод: Профессиональный (многоголосый закадровый)
Cубтитры: русские, английские
Оригинальная аудиодорожка: английский
Режиссер: Джейк Шрейер / Jake Schreier
Сценарий: Кристофер Д. Форд / Christopher D. Ford
Продюсер: Лэнс Экорд / Lance Acord, Джеки Келман Бисби / Jackie Kelman Bisbee, Сэм Бисби / Sam Bisbee, Галт Нидерхоффер / Galt Niederhoffer, Энн Портер / Ann Porter
Оператор: Мэттью Дж. Ллойд / Matthew J. Lloyd
Композитор: Francis and the Lights / Francis and the Lights
В ролях: Фрэнк Ланджелла (Frank), Джеймс Марсден (Hunter), Лив Тайлер (Madison), Сьюзен Сарандон (Jennifer), Питер Сарсгаард (Robot, озвучка), Джереми Стронг (Jake), Дарио Бароссо (Flattop), Бонни Бентли (Ava), Ана Гастейер (Shoplady), Рэйчел Ма (Robot), Дэна Морган (Additional Robot), Джошуа Ормонд (Freckles)
Описание: Фильм о трогательной дружбе старика и робота. История заключается в том, что пожилой мужчина, Фрэнк, в прошлом, кстати, вор-взломщик, живет в одиночестве. Его уже взрослые дети далеко, и чтобы хоть как-то помочь стареющему отцу, у которого начинает развиваться болезнь Альцгеймера, сын дарит Фрэнку робота-компаньона. Действие фильма происходит в не очень далеком будущем, роботы в домашнем хозяйстве - вполне нормальное явление. Поскольку Фрэнк считает себя человеком самостоятельным и не желает, чтобы за ним кто-то или что-то присматривало, он с опаской относится к подаренному роботу.
Сэмпл: http://multi-up.com/841335
Тип релиза: BDRip 1080p
Контейнер: MKV
Видео: AVC, 8 104 Kbps, 1920 x 800, 23.976 fps
Аудио: DTS, 1 509 Kbps, 6 channels, 48.0 KHz Rus
Аудио 2: DTS, 1 509 Kbps, 6 channels, 48.0 KHz Eng
Формат субтитров: softsub (SRT)

MediaInfo

General
Unique ID : 241067571242768416699286634678608686061 (0xB55BECE7851FD1629B61D06D98D36BED)
Complete name : E:\HDVideo\Robot.&.Frank.BDRip.1080p.rus.eng.sub.mkv
Format : Matroska
Format version : Version 4 / Version 2
File size : 7.06 GiB
Duration : 1h 29mn
Overall bit rate : 11.3 Mbps
Encoded date : UTC 2013-03-10 16:15:46
Writing application : mkvmerge v6.1.0 ('Old Devil') built on Mar 2 2013 14:32:37
Writing library : libebml v1.3.0 + libmatroska v1.4.0
Video
ID : 1
Format : AVC
Format/Info : Advanced Video Codec
Format profile : High@L4.1
Format settings, CABAC : Yes
Format settings, ReFrames : 5 frames
Codec ID : V_MPEG4/ISO/AVC
Duration : 1h 29mn
Bit rate : 8 104 Kbps
Width : 1 920 pixels
Height : 800 pixels
Display aspect ratio : 2.40:1
Frame rate mode : Constant
Frame rate : 23.976 fps
Color space : YUV
Chroma subsampling : 4:2:0
Bit depth : 8 bits
Scan type : Progressive
Bits/(Pixel*Frame) : 0.220
Stream size : 5.04 GiB (71%)
Writing library : x264 core 130 r2273kMod b3065e6
Encoding settings : cabac=1 / ref=5 / deblock=1:-3:-3 / analyse=0x3:0x133 / me=umh / subme=11 / psy=1 / fade_compensate=0.00 / psy_rd=1.00:0.00 / mixed_ref=1 / me_range=32 / chroma_me=1 / trellis=2 / 8x8dct=1 / cqm=0 / deadzone=21,11 / fast_pskip=0 / chroma_qp_offset=-2 / threads=6 / lookahead_threads=1 / sliced_threads=0 / nr=0 / decimate=0 / interlaced=0 / bluray_compat=0 / constrained_intra=0 / bframes=9 / b_pyramid=2 / b_adapt=2 / b_bias=0 / direct=1 / weightb=1 / open_gop=0 / weightp=2 / keyint=240 / keyint_min=23 / scenecut=40 / intra_refresh=0 / rc=crf / mbtree=0 / crf=17.0000 / qcomp=0.60 / qpmin=0 / qpmax=69 / qpstep=4 / ip_ratio=1.40 / pb_ratio=1.30 / aq=1:1.00
Language : English
Default : Yes
Forced : No
Audio #1
ID : 2
Format : DTS
Format/Info : Digital Theater Systems
Mode : 16
Format settings, Endianness : Big
Codec ID : A_DTS
Duration : 1h 29mn
Bit rate mode : Constant
Bit rate : 1 509 Kbps
Channel(s) : 6 channels
Channel positions : Front: L C R, Side: L R, LFE
Sampling rate : 48.0 KHz
Bit depth : 24 bits
Compression mode : Lossy
Stream size : 961 MiB (13%)
Language : Russian
Default : Yes
Forced : No
Audio #2
ID : 3
Format : DTS
Format/Info : Digital Theater Systems
Mode : 16
Format settings, Endianness : Big
Codec ID : A_DTS
Duration : 1h 29mn
Bit rate mode : Constant
Bit rate : 1 509 Kbps
Channel(s) : 6 channels
Channel positions : Front: L C R, Side: L R, LFE
Sampling rate : 48.0 KHz
Bit depth : 24 bits
Compression mode : Lossy
Stream size : 961 MiB (13%)
Language : English
Default : No
Forced : No
Text #1
ID : 4
Format : UTF-8
Codec ID : S_TEXT/UTF8
Codec ID/Info : UTF-8 Plain Text
Language : Russian
Default : No
Forced : No
Text #2
ID : 5
Format : UTF-8
Codec ID : S_TEXT/UTF8
Codec ID/Info : UTF-8 Plain Text
Language : English
Default : No
Forced : No

Скриншоты

[Цитировать]



Показать сообщения:    

Текущее время: 27-Май 23:33

Часовой пояс: UTC + 6


Вы не можете начинать темы
Вы не можете отвечать на сообщения
Вы не можете редактировать свои сообщения
Вы не можете удалять свои сообщения
Вы не можете голосовать в опросах
Вы не можете прикреплять файлы к сообщениям
Вы не можете скачивать файлы

!ВНИМАНИЕ!
Сайт не предоставляет электронные версии произведений, а занимается лишь коллекционированием и каталогизацией ссылок, присылаемых и публикуемых на форуме нашими читателями. Если вы являетесь правообладателем какого-либо представленного материала и не желаете, чтобы ссылка на него находилась в нашем каталоге, свяжитесь с нами, и мы незамедлительно удалим ее. Файлы для обмена на трекере предоставлены пользователями сайта, и администрация не несет ответственности за их содержание. Просьба не заливать файлы, защищенные авторскими правами, а также файлы нелегального содержания!