[ Сегодня идет свободное скачивание без начисления Download ]


Статистика раздачи
Нет
 
   
 
Top  
 
 
-Парижский отсчет / Le jour attendra (2013) HDRip- Год выпуска: 2013
Производство: Франция
Жанр: Триллер, Боевик, Криминал
Перевод: Одноголосый закадровый, любительский
Озвучка / Автор перевода: Xixidok
Субтитры: Отсутствуют
Дата мировой премьеры: 20 июня 2013
Режиссер: Эдгар Мари
Продюсер: Сирил Кольбо-Жюстен, Жан-Батист Дюпон
Актеры: Жак Гамблен, Оливье Маршаль, Карло Брандт, Реда Катеб, Игорь Скреблин, Франсис Рено, Энн Шаррье, Джеймс Кадзама, Лор Марсак, Muratt Atik
Описание фильма:
Владельцы ночных клубов Милан и Виктор в прошлом были друзьями, но со временем стали злейшими конкурентами. Однако весть о том, что из тюрьмы выходит их давний товарищ Серки, заставляет их забыть распри и вновь объединится. Много лет назад из-за их махинаций Серки попал в тюрьму, и теперь они уверены, что он намерен им отомстить. Однако даже совместными усилиями им совсем не просто справиться с таким опасным психопатом, каким стал их бывший друг за долгие годы в тюрьме…
Продолжительность: 01:29:37
Качество видео: HDRip
Видеокодек: Xvid
Битрейт видео: ~1790 kbps
Размер кадра: 720x304
Аудио1: MP3, 192 kb/s (2 ch) Русский
Аудио2: AC3, 192 kb/s (2 ch) Французский

Mediainfo

Общее
Полное имя : H:\pari otchet\Parizhskij.otschet.2013.L1.HDRip.1400Mb.avi
Формат : AVI
Формат/Информация : Audio Video Interleave
Размер файла : 1,37 Гбайт
Продолжительность : 1 ч. 29 м.
Общий поток : 2188 Кбит/сек
Программа кодирования : VirtualDubMod 1.5.10.3 | www.virtualdub-fr.org || (build 2550/release)
Библиотека кодирования : VirtualDubMod build 2550/release
Видео
Идентификатор : 0
Формат : MPEG-4 Visual
Профиль формата : Advanced Simple@L5
Параметр BVOP формата : 1
Параметр QPel формата : Нет
Параметр GMC формата : Без точки перехода
Параметр матрицы формата : Выборочная
Идентификатор кодека : XVID
Идентификатор кодека/Подсказка : XviD
Продолжительность : 1 ч. 29 м.
Битрейт : 1790 Кбит/сек
Ширина : 720 пикселей
Высота : 304 пикселя
Соотношение сторон : 2,35:1
Частота кадров : 24,000 кадра/сек
Цветовое пространство : YUV
Субдискретизация насыщенности : 4:2:0
Битовая глубина : 8 бит
Тип развёртки : Прогрессивная
Метод сжатия : С потерями
Бит/(Пиксели*Кадры) : 0.341
Размер потока : 1,12 Гбайт (82%)
Библиотека кодирования : XviD 1.2.1 (UTC 2008-12-04)
Аудио #1
Идентификатор : 1
Формат : MPEG Audio
Версия формата : Version 1
Профиль формата : Layer 3
Режим : Joint stereo
Идентификатор кодека : 55
Идентификатор кодека/Подсказка : MP3
Продолжительность : 1 ч. 29 м.
Вид битрейта : Постоянный
Битрейт : 192 Кбит/сек
Каналы : 2 канала
Частота : 48,0 КГц
Метод сжатия : С потерями
Размер потока : 123 Мбайт (9%)
Выравнивание : Соединение по промежуткам
Продолжительность промежутка : 42 мс. (1,00 видеокадр)
Время предзагрузки промежутка : 504 мс.
Аудио #2
Идентификатор : 2
Формат : AC-3
Формат/Информация : Audio Coding 3
Расширение режима : CM (complete main)
Параметр Endianness формата : Big
Идентификатор кодека : 2000
Продолжительность : 1 ч. 29 м.
Вид битрейта : Постоянный
Битрейт : 192 Кбит/сек
Каналы : 2 канала
Расположение каналов : Front: L R
Частота : 48,0 КГц
Битовая глубина : 16 бит
Метод сжатия : С потерями
Размер потока : 123 Мбайт (9%)
Выравнивание : Разделение по промежуткам
Продолжительность промежутка : 42 мс. (1,00 видеокадр)
Время предзагрузки промежутка : 500 мс.
Скриншоты:[th]http://img.torrentsclub.org/di/YYD0/1tdu.jpg[/th] [th]http://img.torrentsclub.org/di/7WXX/2oy3.jpg[/th] [th]http://img.torrentsclub.org/di/0O1B/72by.jpg[/th] [th]http://img.torrentsclub.org/di/0J6O/vq21.jpg[/th]Время раздачи: С 07:00 до 23:00

[Цитировать]



Показать сообщения:    

Текущее время: 09-Дек 16:36

Часовой пояс: UTC + 3


Вы не можете начинать темы
Вы не можете отвечать на сообщения
Вы не можете редактировать свои сообщения
Вы не можете удалять свои сообщения
Вы не можете голосовать в опросах
Вы не можете прикреплять файлы к сообщениям
Вы не можете скачивать файлы

!ВНИМАНИЕ!
Сайт не предоставляет электронные версии произведений, а занимается лишь коллекционированием и каталогизацией ссылок, присылаемых и публикуемых на форуме нашими читателями. Если вы являетесь правообладателем какого-либо представленного материала и не желаете, чтобы ссылка на него находилась в нашем каталоге, свяжитесь с нами, и мы незамедлительно удалим ее. Файлы для обмена на трекере предоставлены пользователями сайта, и администрация не несет ответственности за их содержание. Просьба не заливать файлы, защищенные авторскими правами, а также файлы нелегального содержания!