[ Сегодня идет свободное скачивание без начисления Download ]


Статистика раздачи
Нет
 
   
 
Top  
 
 
-Ёлки 3-«Вместе теплее»-- Год выпуска: 2013
Производство: Россия / Базелевс Продакшн
Жанр: Комедия
Перевод: Не требуется [лицензия]
Язык: Русский
Субтитры: Отсутствуют
Дата мировой премьеры: 26 декабря 2013
Дата российской премьеры: 26 декабря 2013, «Bazelevs Distribution»
Дата выхода DVD релиза: 27 января 2014, «Новый Диск»
Режиссер: Ольга Харина, Дмитрий Киселёв, Александр Котт
Продюсер: Тимур Бекмамбетов, Ива Стромилова, Ольга Харина
Актеры: Сергей Светлаков, Иван Ургант, Вера Брежнева, Сергей Безруков, Владимир Меньшов, Гоша Куценко, Александр Головин, Виктор Вержбицкий, Алексей Петренко, Петр Федоров
Описание фильма:
Если ты сделал добро, тебе не обязательно ответят добром — это правда жизни. Ты помог кому-то, а тебе помог неизвестный… Случайно? Это бумеранг добра, который будет запущен героем нашей объединяющей истории, пройдет внутри других новелл, вызвав волну добрых поступков и серьезные изменения для всех героев, и вернется к тому, кто все начал, в тот момент, когда надеяться, кажется, будет уже не на что.

Продолжительность: 01:32:58
Качество видео: DVDRip
Видеокодек: Xvid
Битрейт видео: ~ 915 Kbps 25.00 fps
Размер кадра: 640x272
Аудиокодек: MP3 2.0
Битрейт аудио: 128 Kbps 48000 Hz
Сэмпл: Скачать

MediaInfo:

Общее
Полное имя                               :Elki.3.2013.O.DVDRip.700MB.nnm-club.avi
Формат                                   : AVI
Формат/Информация                        : Audio Video Interleave
Размер файла                             : 701 Мбайт
Продолжительность                        : 1 ч. 32 м.
Общий поток                              : 1054 Кбит/сек
Программа кодирования                    : VirtualDubMod 1.5.10.3 | | (build 2550/release)
Библиотека кодирования                   : VirtualDubMod build 2550/release
Видео
Идентификатор                            : 0
Формат                                   : MPEG-4 Visual
Профиль формата                          : Advanced [email protected]
Параметр BVOP формата                    : 1
Параметр QPel формата                    : Нет
Параметр GMC формата                     : Без точки перехода
Параметр матрицы формата                 : Default (MPEG)
Идентификатор кодека                     : XVID
Идентификатор кодека/Подсказка           : XviD
Продолжительность                        : 1 ч. 32 м.
Битрейт                                  : 916 Кбит/сек
Ширина                                   : 640 пикселей
Высота                                   : 272 пикселя
Соотношение сторон                       : 2,35:1
Частота кадров                           : 25,000 кадров/сек
Цветовое пространство                    : YUV
Субдискретизация насыщенности            : 4:2:0
Битовая глубина                          : 8 бит
Тип развёртки                            : Прогрессивная
Метод сжатия                             : С потерями
Бит/(Пиксели*Кадры)                      : 0.210
Размер потока                            : 609 Мбайт (87%)
Библиотека кодирования                   : XviD 73
Аудио
Идентификатор                            : 1
Формат                                   : MPEG Audio
Версия формата                           : Version 1
Профиль формата                          : Layer 3
Идентификатор кодека                     : 55
Идентификатор кодека/Подсказка           : MP3
Продолжительность                        : 1 ч. 32 м.
Вид битрейта                             : Постоянный
Битрейт                                  : 128 Кбит/сек
Каналы                                   : 2 канала
Частота                                  : 48,0 КГц
Метод сжатия                             : С потерями
Размер потока                            : 85,1 Мбайт (12%)
Выравнивание                             : Соединение по промежуткам
Продолжительность промежутка             : 40  мс. (1,00 видеокадр)
Время предзагрузки промежутка            : 504  мс.
Библиотека кодирования                   : LAME3.99r
Настройки программы                      : -m s -V 4 -q 2 -lowpass 17 -b 128

[Цитировать]

Топик был перенесен из форума Новинки кинопроката в форум Комедия
Henkok



Показать сообщения:    

Текущее время: 06-Дек 23:00

Часовой пояс: UTC + 3


Вы не можете начинать темы
Вы не можете отвечать на сообщения
Вы не можете редактировать свои сообщения
Вы не можете удалять свои сообщения
Вы не можете голосовать в опросах
Вы не можете прикреплять файлы к сообщениям
Вы не можете скачивать файлы

!ВНИМАНИЕ!
Сайт не предоставляет электронные версии произведений, а занимается лишь коллекционированием и каталогизацией ссылок, присылаемых и публикуемых на форуме нашими читателями. Если вы являетесь правообладателем какого-либо представленного материала и не желаете, чтобы ссылка на него находилась в нашем каталоге, свяжитесь с нами, и мы незамедлительно удалим ее. Файлы для обмена на трекере предоставлены пользователями сайта, и администрация не несет ответственности за их содержание. Просьба не заливать файлы, защищенные авторскими правами, а также файлы нелегального содержания!