[ Сегодня идет свободное скачивание без начисления Download ]


Статистика раздачи
Нет
 
   
 
Top  
 
 
-Философы: Урок выживания / The Philosophers (2013) HDRip- Год выпуска: 2013
Производство: США, Индонезия, An Olive Branch Productions,
Жанр: Фантастика, Триллер
Перевод: Дублированный [Лицензия]
Субтитры: Отсутствуют
Дата мировой премьеры: 21 августа 2013
Дата российской премьеры: 10 октября 2013, «Bazelevs Distribution», «All Media»
Дата выхода DVD релиза: 12 ноября 2013, «Флагман-Трейд»
Режиссер: Джон Хаддлс
Продюсер: Джон Хаддлс, Сибилл Луи, Джордж Закк
Актеры: Софи Лоу, Джеймс Д’Арси, Риз Уэйкфилд, Дэрил Сабара, Бонни Райт, Кэти Финдлей, Фредди Строма, Хоуп Олэйд Уилсон, Абхи Синха, Джейкоб Артист
Описание фильма:В международной школе в Джакарте таинственный учитель философии в качестве выпускного экзамена предлагает 20 студентам провести эксперимент. Этот опыт будет самым экстремальным, с которым они когда-либо сталкивались. Используя только силу логики, студенты должны выбрать, кто из них будет достоин получить место в подземном бункере — единственном месте, где можно спастись от приближающейся ядерной катастрофы. Бункер рассчитан на десять человек, а значит, тех, кого не выбирают, ожидает жестокая смерть. Реальность классной комнаты эффектно перетекает в воображаемый, но в то же время пугающий мир надвигающегося апокалипсиса…
Продолжительность: 01:42:24
Качество видео: HDRip
Видеокодек: Xvid
Битрейт видео: ~1846 Kbps
Размер кадра: 720x304
Аудио #1: Русский: AC-3, 48.0 KHz, 6 ch, 448 Kbps, CBR
Аудио #2: Английский: AC-3, 48.0 KHz, 6 ch, 448 Kbps, CBR

MediaInfo:

Общее
Полное имя : E:\Фильмы\Filosofy.urok.vyjivaniya.2013.D.HDRip.2100MB.avi
Формат : AVI
Формат/Информация : Audio Video Interleave
Размер файла : 2,05 Гбайт
Продолжительность : 1 ч. 46 м.
Общий поток : 2756 Кбит/сек
Программа кодирования : VirtualDubMod 1.5.10.2 (build 2540/release)
Библиотека кодирования : VirtualDubMod build 2540/release
Видео
Идентификатор : 0
Формат : MPEG-4 Visual
Профиль формата : Advanced [email protected]
Параметр BVOP формата : 2
Параметр QPel формата : Нет
Параметр GMC формата : Без точки перехода
Параметр матрицы формата : Выборочная
Идентификатор кодека : XVID
Идентификатор кодека/Подсказка : XviD
Продолжительность : 1 ч. 46 м.
Битрейт : 1846 Кбит/сек
Ширина : 720 пикселей
Высота : 304 пикселя
Соотношение сторон : 2,35:1
Частота кадров : 24,000 кадра/сек
Цветовое пространство : YUV
Субдискретизация насыщенности : 4:2:0
Битовая глубина : 8 бит
Тип развёртки : Прогрессивная
Метод сжатия : С потерями
Бит/(Пиксели*Кадры) : 0.351
Размер потока : 1,37 Гбайт (67%)
Библиотека кодирования : XviD 1.2.1 (UTC 2008-12-04)
Аудио #1
Идентификатор : 1
Формат : AC-3
Формат/Информация : Audio Coding 3
Расширение режима : CM (complete main)
Параметр Endianness формата : Big
Идентификатор кодека : 2000
Продолжительность : 1 ч. 46 м.
Вид битрейта : Постоянный
Битрейт : 448 Кбит/сек
Каналы : 6 каналов
Расположение каналов : Front: L C R, Side: L R, LFE
Частота : 48,0 КГц
Битовая глубина : 16 бит
Метод сжатия : С потерями
Размер потока : 342 Мбайт (16%)
Выравнивание : Разделение по промежуткам
Продолжительность промежутка : 42 мс. (1,00 видеокадр)
Время предзагрузки промежутка : 500 мс.
Аудио #2
Идентификатор : 2
Формат : AC-3
Формат/Информация : Audio Coding 3
Расширение режима : CM (complete main)
Параметр Endianness формата : Big
Идентификатор кодека : 2000
Продолжительность : 1 ч. 46 м.
Вид битрейта : Постоянный
Битрейт : 448 Кбит/сек
Каналы : 6 каналов
Расположение каналов : Front: L C R, Side: L R, LFE
Частота : 48,0 КГц
Битовая глубина : 16 бит
Метод сжатия : С потерями
Размер потока : 342 Мбайт (16%)
Выравнивание : Разделение по промежуткам
Продолжительность промежутка : 42 мс. (1,00 видеокадр)
Время предзагрузки промежутка : 500 мс.
Скриншоты:
[th]http://img.torrentsclub.org/di/LY7S/7wz8NDN.png[/th] [th]http://img.torrentsclub.org/di/TFQG/GcJOTZe.png[/th] [th]http://img.torrentsclub.org/di/JWOV/ioNV2Wo.png[/th] [th]http://img.torrentsclub.org/di/LDMJ/qrDqGXd.png[/th]
Время раздачи: 24/7
(до 5 скачавших)

[Цитировать]



Показать сообщения:    

Текущее время: 05-Дек 21:34

Часовой пояс: UTC + 3


Вы не можете начинать темы
Вы не можете отвечать на сообщения
Вы не можете редактировать свои сообщения
Вы не можете удалять свои сообщения
Вы не можете голосовать в опросах
Вы не можете прикреплять файлы к сообщениям
Вы не можете скачивать файлы

!ВНИМАНИЕ!
Сайт не предоставляет электронные версии произведений, а занимается лишь коллекционированием и каталогизацией ссылок, присылаемых и публикуемых на форуме нашими читателями. Если вы являетесь правообладателем какого-либо представленного материала и не желаете, чтобы ссылка на него находилась в нашем каталоге, свяжитесь с нами, и мы незамедлительно удалим ее. Файлы для обмена на трекере предоставлены пользователями сайта, и администрация не несет ответственности за их содержание. Просьба не заливать файлы, защищенные авторскими правами, а также файлы нелегального содержания!