[ Сегодня идет свободное скачивание без начисления Download ]


Статистика раздачи
Нет
 
   
 
Top  
 
 
-За кадром... / In a World... (2013) HDRip«Speak up and let your voice be heard»- Год выпуска: 2013
Производство: США / 3311 Productions, In A World, Team G
Жанр: Комедия
Перевод: Многоголосый закадровый, профессиональный
Субтитры: Отсутствуют
Дата мировой премьеры: 20 января 2013
Дата выхода DVD релиза: 18 февраля 2014, «Columbia/Sony»
Режиссер: Лэйк Белл
Продюсер: Лэйк Белл, Шон Кинг О’Грэйди, Марк Робертс
Актеры: Лэйк Белл, Роб Кордри, Александра Холден, Ева Лонгория, Кен Марино, Деметри Мартин, Фред Меламед, Тиг Нотаро, Ник Офферман, Михаэлла Уоткинс
Описание фильма:
Завязка сюжета могла прийти в голову только человеку с кинематографическим стажем: Лэйк играет тренера по речи и специалиста по озвучке трейлеров Кэрол. Отец ее героини Сэм Сото — звезда цеха и домашний тиран, отказывающий Кэрол от отчего дома, дабы освободить место для своей 30-летней подружки. Война отцов и детей переносится на оба фронта — личный и профессиональный — когда Кэрол вступает в бой за право озвучивать трейлеры «Амазонских игр».
Продолжительность: 01:32:57
Качество видео: HDRip
Видеокодек: Xvid
Битрейт видео: ~917 Kbit/s
Размер кадра: 688 х 288
Аудиокодек: AC3 2.0
Битрейт аудио: 128 Kbit/s

MediaInfo

Общее
Полное имя : D:\Торренты\РЕЛИЗЫ\За кадром....2013.HDRip.700Mb.avi
Формат : AVI
Формат/Информация : Audio Video Interleave
Размер файла : 701 Мбайт
Продолжительность : 1 ч. 32 м.
Общий поток : 1054 Кбит/сек
Программа кодирования : VirtualDubMod 1.5.10.2 (build 2540/release)
Библиотека кодирования : VirtualDubMod build 2540/release
Видео
Идентификатор : 0
Формат : MPEG-4 Visual
Профиль формата : Advanced Simple@L5
Параметр BVOP формата : 2
Параметр QPel формата : Нет
Параметр GMC формата : Без точки перехода
Параметр матрицы формата : Выборочная
Идентификатор кодека : XVID
Идентификатор кодека/Подсказка : XviD
Продолжительность : 1 ч. 32 м.
Битрейт : 917 Кбит/сек
Ширина : 688 пикс.
Высота : 288 пикс.
Соотношение сторон : 2,35:1
Частота кадров : 23,976 кадр/сек
Цветовое пространство : YUV
Подвыборка цветности : 4:2:0
Битовая глубина : 8 бит
Тип развёртки : Прогрессивная
Метод сжатия : С потерями
Бит/(Пиксели*Кадры) : 0.193
Размер потока : 610 Мбайт (87%)
Библиотека кодирования : XviD 1.2.1 (UTC 2008-12-04)
Аудио
Идентификатор : 1
Формат : AC-3
Формат/Информация : Audio Coding 3
Расширение режима : CM (complete main)
Идентификатор кодека : 2000
Продолжительность : 1 ч. 32 м.
Вид битрейта : Постоянный
Битрейт : 128 Кбит/сек
Каналы : 2 канала
Расположение каналов : Front: L R
Частота : 48,0 КГц
Битовая глубина : 16 бит
Метод сжатия : С потерями
Размер потока : 85,1 Мбайт (12%)
Выравнивание : Разделение по промежуткам
Продолжительность промежутка : 42 мс. (1,00 видеокадр)
Время предзагрузки промежутка : 500 ms
Скриншоты:
[th]http://img.torrentsclub.org/di/LWIO/0b3dddc85652bfe...e68374a.jpg[/th] [th]http://img.torrentsclub.org/di/F5XO/15d8af9e295ec23...5e5b02b.jpg[/th] [th]http://img.torrentsclub.org/di/6US8/214c674b82cad23...7b8bbcd.jpg[/th]
Время раздачи: 24/7 по возможности

[Цитировать]



Показать сообщения:    

Текущее время: 10-Дек 13:51

Часовой пояс: UTC + 3


Вы не можете начинать темы
Вы не можете отвечать на сообщения
Вы не можете редактировать свои сообщения
Вы не можете удалять свои сообщения
Вы не можете голосовать в опросах
Вы не можете прикреплять файлы к сообщениям
Вы не можете скачивать файлы

!ВНИМАНИЕ!
Сайт не предоставляет электронные версии произведений, а занимается лишь коллекционированием и каталогизацией ссылок, присылаемых и публикуемых на форуме нашими читателями. Если вы являетесь правообладателем какого-либо представленного материала и не желаете, чтобы ссылка на него находилась в нашем каталоге, свяжитесь с нами, и мы незамедлительно удалим ее. Файлы для обмена на трекере предоставлены пользователями сайта, и администрация не несет ответственности за их содержание. Просьба не заливать файлы, защищенные авторскими правами, а также файлы нелегального содержания!