[ Сегодня идет свободное скачивание без начисления Download ]


Статистика раздачи
Нет
 
   
 
Top  
 
 
-Любовь и секс на Ибице / Verliefd op Ibiza (2013) HDRip- Год выпуска: 2013
Производство: Нидерланды / Farmhouse Film & TV, Johan Nijenhuis & Co, Televisie Radio Omroep Stichting (TROS)
Жанр: Мелодрама, Комедия
Перевод: Многоголосый закадровый, профессиональный [лицензия]
Субтитры: Отсутствуют
Дата мировой премьеры: 28 января 2013
Дата выхода DVD релиза: 19 ноября 2013, «Флагман-Трейд»
Режиссер: Йохан Нийенхейс
Продюсер: Клаас де Йонг, Йохан Нийенхейс, Бернард Тюльп
Актеры: Виллеке ван Аммельрой, Йим Баккум, Рик Энгелкес, Ким Феенстра, Джаспер Готтлиб, Мариус Готтлиб, Кимберли Клавер, Симоне Клейнсма, Ян Коейман, Дэвид Люсиер
Описание фильма:Футболист Кевин только что заключил выгодный контракт с мадридским Реалом. Он вряд ли понимает, что делать со свалившимся на него богатством, но его подруга Эльза знает, как Кевин должен тратить свои миллионы... Две 40-летних подруги Джеки и Ирма хотя и проводят отпуск вместе, но имеют разные представления об идеальном отдыхе: Джеки предпочитает тусоваться с молодыми горячими парнями, тогда как Ирме милее спокойный отдых на пляже с книгой... Братья Дилан и Бойд мечтают стать DJ-звездами мирового класса... Пути всех этих героев пересекаются на острове Ибица.
Продолжительность: 01:52:01
Качество видео: HDRip
Видеокодек: Xvid
Битрейт видео: ~1411 Kbit/s
Размер кадра: 720x400
Аудиокодек: AC3 5.1
Битрейт аудио: 448 Kbit/s

MediaInfo

Общее
Полное имя : E:\Фильмы\Lubovj.i.sekes.na.Ibice.2013.P.HDRip.1.46Gb.avi
Формат : AVI
Формат/Информация : Audio Video Interleave
Размер файла : 1,46 Гбайт
Продолжительность : 1 ч. 52 м.
Общий поток : 1868 Кбит/сек
Программа кодирования : VirtualDubMod 1.5.10.2 (build 2540/release)
Библиотека кодирования : VirtualDubMod build 2540/release
Видео
Идентификатор : 0
Формат : MPEG-4 Visual
Профиль формата : Advanced Simple@L5
Параметр BVOP формата : 2
Параметр QPel формата : Нет
Параметр GMC формата : Без точки перехода
Параметр матрицы формата : Default (MPEG)
Идентификатор кодека : XVID
Идентификатор кодека/Подсказка : XviD
Продолжительность : 1 ч. 52 м.
Битрейт : 1411 Кбит/сек
Ширина : 720 пикселей
Высота : 400 пикселей
Соотношение сторон : 16:9
Частота кадров : 25,000 кадров/сек
Цветовое пространство : YUV
Субдискретизация насыщенности : 4:2:0
Битовая глубина : 8 бит
Тип развёртки : Прогрессивная
Метод сжатия : С потерями
Бит/(Пиксели*Кадры) : 0.196
Размер потока : 1,10 Гбайт (76%)
Библиотека кодирования : XviD 1.2.1 (UTC 2008-12-04)
Аудио
Идентификатор : 1
Формат : AC-3
Формат/Информация : Audio Coding 3
Расширение режима : CM (complete main)
Параметр Endianness формата : Big
Идентификатор кодека : 2000
Продолжительность : 1 ч. 52 м.
Вид битрейта : Постоянный
Битрейт : 448 Кбит/сек
Каналы : 6 каналов
Расположение каналов : Front: L C R, Side: L R, LFE
Частота : 48,0 КГц
Битовая глубина : 16 бит
Метод сжатия : С потерями
Размер потока : 359 Мбайт (24%)
Выравнивание : Разделение по промежуткам
Продолжительность промежутка : 40 мс. (1,00 видеокадр)
Время предзагрузки промежутка : 500 мс.
Скриншоты:
[th]http://img.torrentsclub.org/di/UNDG/3e764a0f277cb8b...f5eb52d.png[/th] [th]http://img.torrentsclub.org/di/ERRT/7eb57a374c95501...62485b3.png[/th] [th]http://img.torrentsclub.org/di/248S/88baf34a848873e...fb8ac7f.png[/th]
Время раздачи: 24/7
(до 5 скачавших)

[Цитировать]



Показать сообщения:    

Текущее время: 08-Дек 07:08

Часовой пояс: UTC + 3


Вы не можете начинать темы
Вы не можете отвечать на сообщения
Вы не можете редактировать свои сообщения
Вы не можете удалять свои сообщения
Вы не можете голосовать в опросах
Вы не можете прикреплять файлы к сообщениям
Вы не можете скачивать файлы

!ВНИМАНИЕ!
Сайт не предоставляет электронные версии произведений, а занимается лишь коллекционированием и каталогизацией ссылок, присылаемых и публикуемых на форуме нашими читателями. Если вы являетесь правообладателем какого-либо представленного материала и не желаете, чтобы ссылка на него находилась в нашем каталоге, свяжитесь с нами, и мы незамедлительно удалим ее. Файлы для обмена на трекере предоставлены пользователями сайта, и администрация не несет ответственности за их содержание. Просьба не заливать файлы, защищенные авторскими правами, а также файлы нелегального содержания!