[ Сегодня идет свободное скачивание без начисления Download ]


Статистика раздачи
Нет
 
   
 
Top  
 
 
-Голодные игры: И вспыхнет пламя / The Hunger Games: Catching Fire - Год выпуска: 2013
Производство: США
Жанр: Фантастика, Боевик, Приключения
Перевод: Дублированный (Звук с TS)
Субтитры: Вшитые отключаемые
Язык субтитров: Английский
Дата мировой премьеры: 11 ноября 2013
Дата российской премьеры: 21 ноября 2013, «Вольга»
Режиссер: Френсис Лоуренс
Продюсер: Нина Джейкобсон, Джон Килик, Сьюзен Коллинз
Актеры: Дженнифер Лоуренс, Джош Хатчерсон, Сэм Клафлин, Джена Мэлоун, Вуди Харрельсон, Элизабет Бэнкс, Лиам Хемсворт, Дональд Сазерленд, Филип Сеймур Хоффман, Стэнли Туччи
Описание фильма:
Сумев выжить на безжалостных Голодных играх, Китнисс Эвердин и Пит Мелларк возвращаются домой. Но теперь они в еще большей опасности, так как своим отказом играть по правилам на Арене бросили вызов Капитолию. По традиции следующие, юбилейные, Голодные игры должны стать особенными, и в этот раз в них участвуют только победители прошлых лет. Китнисс и Пит вынуждены вновь выйти на Арену, где будут соперничать с сильнейшими. Правила игры меняются. Арена еще опасней, масштаб еще больше, ставки еще выше!

Продолжительность: 02:26:15
Качество видео: BDRip [720p] [profile-LQ]
Видеокодек: MPEG-4 AVC/H.264
Битрейт видео: ~4582 kbps
Размер кадра: 1280x720
Аудио1: MP3, 2 ch, 320 kb/s Русский
Аудио2: AC3, 6ch, 640 kb/s Английский

Mediainfo

Общее
Уникальный идентификатор : 173641711048613105482275508901258520554 (0x82A22D55CA7B9F3FB6EC0A2C0EE0E7EA)
Полное имя : H:\The Hunger Games Catching Fire\The.Hunger.Games.Catching.Fire.2013.IMAX.EDITION.Dt.BluRay.720p.mkv
Формат : Matroska
Версия формата : Version 2
Размер файла : 5,78 Гбайт
Продолжительность : 2 ч. 26 м.
Общий поток : 5655 Кбит/сек
Дата кодирования : UTC 2014-01-19 19:11:10
Программа кодирования : mkvmerge v6.7.0 ('Back to the Ground') 32bit built on Jan 8 2014 15:03:17
Библиотека кодирования : libebml v1.3.0 + libmatroska v1.4.1
Видео
Идентификатор : 2
Формат : AVC
Формат/Информация : Advanced Video Codec
Профиль формата : High@L4.1
Параметр CABAC формата : Да
Параметр ReFrames формата : 5 кадров
Идентификатор кодека : V_MPEG4/ISO/AVC
Продолжительность : 2 ч. 26 м.
Битрейт : 4582 Кбит/сек
Ширина : 1280 пикселей
Высота : 720 пикселей
Соотношение сторон : 16:9
Режим частоты кадров : Постоянный
Частота кадров : 23,976 кадра/сек
Цветовое пространство : YUV
Субдискретизация насыщенности : 4:2:0
Битовая глубина : 8 бит
Тип развёртки : Прогрессивная
Бит/(Пиксели*Кадры) : 0.207
Размер потока : 4,68 Гбайт (81%)
Язык : English
Default : Да
Forced : Нет
Аудио #1
Идентификатор : 1
Формат : MPEG Audio
Версия формата : Version 1
Профиль формата : Layer 3
Режим : Joint stereo
Идентификатор кодека : A_MPEG/L3
Идентификатор кодека/Подсказка : MP3
Продолжительность : 2 ч. 26 м.
Вид битрейта : Постоянный
Битрейт : 320 Кбит/сек
Каналы : 2 канала
Частота : 48,0 КГц
Метод сжатия : С потерями
Размер потока : 335 Мбайт (6%)
Язык : Russian
Default : Да
Forced : Нет
Аудио #2
Идентификатор : 3
Формат : AC-3
Формат/Информация : Audio Coding 3
Расширение режима : CM (complete main)
Параметр Endianness формата : Big
Идентификатор кодека : A_AC3
Продолжительность : 2 ч. 26 м.
Вид битрейта : Постоянный
Битрейт : 640 Кбит/сек
Каналы : 6 каналов
Расположение каналов : Front: L C R, Side: L R, LFE
Частота : 48,0 КГц
Битовая глубина : 16 бит
Метод сжатия : С потерями
Размер потока : 669 Мбайт (11%)
Язык : English
Default : Нет
Forced : Нет
Текст #1
Идентификатор : 4
Формат : UTF-8
Идентификатор кодека : S_TEXT/UTF8
Идентификатор кодека/Информация : UTF-8 Plain Text
Язык : English
Default : Нет
Forced : Нет
Текст #2
Идентификатор : 5
Формат : UTF-8
Идентификатор кодека : S_TEXT/UTF8
Идентификатор кодека/Информация : UTF-8 Plain Text
Язык : English
Default : Нет
Forced : Нет
Меню
00:00:00.000 : en:00:00:00.000
00:11:24.684 : en:00:11:24.684
00:16:48.049 : en:00:16:48.049
00:25:38.078 : en:00:25:38.078
00:35:51.649 : en:00:35:51.649
00:44:22.576 : en:00:44:22.576
00:52:12.921 : en:00:52:12.921
01:01:11.376 : en:01:01:11.376
01:08:12.213 : en:01:08:12.213
01:16:48.938 : en:01:16:48.938
01:22:39.663 : en:01:22:39.663
01:29:21.731 : en:01:29:21.731
01:40:43.913 : en:01:40:43.913
01:50:47.766 : en:01:50:47.766
02:02:46.984 : en:02:02:46.984
02:09:58.958 : en:02:09:58.958

[Цитировать]



Показать сообщения:    

Текущее время: 08-Дек 14:53

Часовой пояс: UTC + 3


Вы не можете начинать темы
Вы не можете отвечать на сообщения
Вы не можете редактировать свои сообщения
Вы не можете удалять свои сообщения
Вы не можете голосовать в опросах
Вы не можете прикреплять файлы к сообщениям
Вы не можете скачивать файлы

!ВНИМАНИЕ!
Сайт не предоставляет электронные версии произведений, а занимается лишь коллекционированием и каталогизацией ссылок, присылаемых и публикуемых на форуме нашими читателями. Если вы являетесь правообладателем какого-либо представленного материала и не желаете, чтобы ссылка на него находилась в нашем каталоге, свяжитесь с нами, и мы незамедлительно удалим ее. Файлы для обмена на трекере предоставлены пользователями сайта, и администрация не несет ответственности за их содержание. Просьба не заливать файлы, защищенные авторскими правами, а также файлы нелегального содержания!