[ Сегодня идет свободное скачивание без начисления Download ]


Статистика раздачи
Нет
 
   
 
Top  
 
 
-Собутыльники / Drinking Buddies (2013) BDRemux [1080p]- Год выпуска: 2013
Производство: США, Burn Later Productions
Жанр: Драма, Мелодрама, Комедия
Перевод: Многоголосый закадровый, профессиональный (iTunes)
Субтитры: Вшитые отключаемые
Язык субтитров: Русский, английский
Дата мировой премьеры: 13 марта 2013
Дата выхода DVD релиза: 4 февраля 2014, «Columbia/Sony»
Режиссер: Джо Сванберг
Продюсер: Эшли Бернон, Пол Бернон, Дэвид Каплан
Актеры: Оливия Уайлд, Джейк Джонсон, Анна Кендрик, Рон Ливингстон, Тай Уэст, Майк Брюн, Фрэнк В. Росс, Джейсон Судейкис
Описание фильма:
Люк и Кейт сотрудники чикагского пивоваренного завода, где они проводят свои дни, выпивая и флиртуя. Они идеально подходят друг другу, но вот только они оба уже состоят в отношениях…

Продолжительность: 01:30:23
Качество видео: BDRemux [1080p]
Видео: MPEG-4 AVC, 24973 Кбит/c, 1920x1080
Аудио #1: AC-3, 384 Kbps, 2 channels, 48.0 KHz (Русский)
Аудио #2: DTS, 1 509 Kbps, 6 channels, 48.0 KHz (Английский)
Сэмпл: Скачать

MI

General
Unique ID                      : 242317301481715724221582753646554453862 (0xB64C9D5CC2E24B1BAF30AB1B8F451766)
Complete name                  : D:\Hlam\Co6yTblJlbHuKu.2013.BDRemux.(1080p).mkv
Format                         : Matroska
Format version                 : Version 4 / Version 2
File size                      : 17.0 GiB
Duration                       : 1h 30mn
Overall bit rate mode          : Variable
Overall bit rate               : 26.9 Mbps
Movie name                     : Drinking.Buddies.2013.720p.BluRay.DTS.x264-TayTO
Encoded date                   : UTC 2014-01-08 18:14:08
Writing application            : mkvmerge v6.6.0 ('The Edge Of The In Between') built on Dec  1 2013 17:55:00
Writing library                : libebml v1.3.0 + libmatroska v1.4.1
Video
ID                             : 1
Format                         : AVC
Format/Info                    : Advanced Video Codec
Format profile                 : [url=mailto:High@L4.1]High@L4.1[/url]
Format settings, CABAC         : Yes
Format settings, ReFrames      : 4 frames
Codec ID                       : V_MPEG4/ISO/AVC
Duration                       : 1h 30mn
Bit rate mode                  : Variable
Bit rate                       : 24.4 Mbps
Maximum bit rate               : 35.0 Mbps
Width                          : 1 920 pixels
Height                         : 1 080 pixels
Display aspect ratio           : 16:9
Frame rate mode                : Constant
Frame rate                     : 23.976 fps
Standard                       : NTSC
Color space                    : YUV
Chroma subsampling             : 4:2:0
Bit depth                      : 8 bits
Scan type                      : Progressive
Bits/(Pixel*Frame)             : 0.492
Stream size                    : 15.4 GiB (91%)
Language                       : English
Default                        : Yes
Forced                         : No
Color primaries                : BT.709
Transfer characteristics       : BT.709
Matrix coefficients            : BT.709
Audio #1
ID                             : 2
Format                         : AC-3
Format/Info                    : Audio Coding 3
Mode extension                 : CM (complete main)
Format settings, Endianness    : Big
Codec ID                       : A_AC3
Duration                       : 1h 30mn
Bit rate mode                  : Constant
Bit rate                       : 384 Kbps
Channel count                  : 2 channels
Channel positions              : Front: L R
Sampling rate                  : 48.0 KHz
Bit depth                      : 16 bits
Compression mode               : Lossy
Stream size                    : 248 MiB (1%)
Language                       : Russian
Default                        : Yes
Forced                         : No
Audio #2
ID                             : 3
Format                         : DTS
Format/Info                    : Digital Theater Systems
Mode                           : 16
Format settings, Endianness    : Big
Codec ID                       : A_DTS
Duration                       : 1h 30mn
Bit rate mode                  : Constant
Bit rate                       : 1 509 Kbps
Channel count                  : 6 channels
Channel positions              : Front: L C R, Side: L R, LFE
Sampling rate                  : 48.0 KHz
Bit depth                      : 24 bits
Compression mode               : Lossy
Stream size                    : 975 MiB (6%)
Language                       : English
Default                        : No
Forced                         : No
Text #1
ID                             : 4
Format                         : UTF-8
Codec ID                       : S_TEXT/UTF8
Codec ID/Info                  : UTF-8 Plain Text
Language                       : Russian
Default                        : No
Forced                         : No
Text #2
ID                             : 5
Format                         : UTF-8
Codec ID                       : S_TEXT/UTF8
Codec ID/Info                  : UTF-8 Plain Text
Language                       : English
Default                        : No
Forced                         : No
Menu #1
00:00:00.000                   : en:00:00:00.000
00:07:19.439                   : en:00:07:19.439
00:15:21.546                   : en:00:15:21.546
00:21:17.067                   : en:00:21:17.067
00:30:13.270                   : en:00:30:13.270
00:37:39.215                   : en:00:37:39.215
00:44:10.356                   : en:00:44:10.356
00:51:01.392                   : en:00:51:01.392
00:58:22.582                   : en:00:58:22.582
01:05:47.026                   : en:01:05:47.026
01:16:21.076                   : en:01:16:21.076
01:26:41.446                   : en:01:26:41.446
Menu #2
00:00:00.054                   : en:00:00:00.054
Скриншоты:

[Цитировать]



Показать сообщения:    

Текущее время: 09-Дек 18:32

Часовой пояс: UTC + 3


Вы не можете начинать темы
Вы не можете отвечать на сообщения
Вы не можете редактировать свои сообщения
Вы не можете удалять свои сообщения
Вы не можете голосовать в опросах
Вы не можете прикреплять файлы к сообщениям
Вы не можете скачивать файлы

!ВНИМАНИЕ!
Сайт не предоставляет электронные версии произведений, а занимается лишь коллекционированием и каталогизацией ссылок, присылаемых и публикуемых на форуме нашими читателями. Если вы являетесь правообладателем какого-либо представленного материала и не желаете, чтобы ссылка на него находилась в нашем каталоге, свяжитесь с нами, и мы незамедлительно удалим ее. Файлы для обмена на трекере предоставлены пользователями сайта, и администрация не несет ответственности за их содержание. Просьба не заливать файлы, защищенные авторскими правами, а также файлы нелегального содержания!