[ Сегодня идет свободное скачивание без начисления Download ]


Статистика раздачи
Нет
 
   
 
Top  
 
 
-Солист / The Soloist (2009) BDRip [1080p]- -Год выпуска: 2009
Жанр: Драма, Музыкальный-Описание фильма:
Журналист Стив Лопес встречает Натаниеля Айерса, бывшего виртуозного музыканта, вынужденного играть на виолончели на улицах Лос-Анджелеса. Лопес пытается помочь бездомному вернуться к нормальной жизни, и между ними возникает уникальная дружба, которая меняет судьбу обоих.-Режиссер: Джо Райт
Актеры: Джейми Фокс, Роберт Дауни мл., Кэтрин Кинер, Том Холландер, Лиза Гэй Хэмилтон, Нелсан Эллис, Рэйчел Харрис, Стивен Рут, Лоррейн Туссен, Джастин Мартин-Продолжительность: 1:57:02
Качество видео: BDRip
Перевод: Дублированный
Язык субтитров: 3xРусские(Надписи; полные; перевод комментария Джо Райта), Украинские, Английские
Вид субтитров: Вшитые-
Сэмпл-Дата мировой премьеры: 24.04.2009
Дата выхода DVD релиза: 12.01.2010-Видеокодек: MPEG-4 AVC/H.264
Битрейт видео: ~9 485 Kb/s
Размер кадра: 1920х800
Аудио 1: AC3 5.1, 448 Kb/s (Русский)
Аудио 2: AC3 5.1, 640 Kb/s (Английский)
Аудио 3: AC3 2.0, 192 Kb/s - Комментарии Джо Райта (Английский)-

Mediainfo

General
Complete name : E:\Раздача\Soloist.mkv
Format : Matroska
File size : 8.98 GiB
Duration : 1h 57mn
Overall bit rate : 11.0 Mbps
Movie name : The Soloist
Encoded date : UTC 2014-01-18 06:16:42
Writing application : mkvmerge v6.7.0 ('Back to the Ground') 64bit built on Jan 8 2014 15:10:52
Writing library : libebml v1.3.0 + libmatroska v1.4.1
Video
ID : 1
Format : AVC
Format/Info : Advanced Video Codec
Format profile : High@L4.1
Format settings, CABAC : Yes
Format settings, ReFrames : 4 frames
Muxing mode : Container profile=Unknown@4.1
Codec ID : V_MPEG4/ISO/AVC
Duration : 1h 56mn
Bit rate : 9 485 Kbps
Nominal bit rate : 9 727 Kbps
Width : 1 920 pixels
Height : 800 pixels
Display aspect ratio : 2.40:1
Frame rate : 23.976 fps
Resolution : 8 bits
Colorimetry : 4:2:0
Scan type : Progressive
Bits/(Pixel*Frame) : 0.258
Stream size : 7.75 GiB (86%)
Writing library : x264 core 98 r1649 20cbe10
Encoding settings : cabac=1 / ref=4 / deblock=1:-3:-3 / analyse=0x3:0x113 / me=umh / subme=7 / psy=1 / psy_rd=0.90:0.05 / mixed_ref=1 / me_range=32 / chroma_me=1 / trellis=2 / 8x8dct=1 / cqm=0 / deadzone=21,11 / fast_pskip=0 / chroma_qp_offset=-3 / threads=6 / sliced_threads=0 / nr=0 / decimate=0 / interlaced=0 / constrained_intra=0 / bframes=7 / b_pyramid=2 / b_adapt=2 / b_bias=0 / direct=1 / weightb=1 / weightp=2 / keyint=250 / keyint_min=25 / scenecut=40 / intra_refresh=0 / rc=2pass / mbtree=0 / bitrate=9727 / ratetol=1.0 / qcomp=0.60 / qpmin=10 / qpmax=51 / qpstep=4 / cplxblur=20.0 / qblur=0.5 / ip_ratio=1.40 / pb_ratio=1.30 / aq=1:1.00
Audio #1
ID : 2
Format : AC-3
Format/Info : Audio Coding 3
Codec ID : A_AC3
Duration : 1h 57mn
Bit rate mode : Constant
Bit rate : 448 Kbps
Channel(s) : 6 channels
Channel positions : Front: L C R, Surround: L R, LFE
Sampling rate : 48.0 KHz
Stream size : 375 MiB (4%)
Language : Russian
Audio #2
ID : 3
Format : AC-3
Format/Info : Audio Coding 3
Codec ID : A_AC3
Duration : 1h 57mn
Bit rate mode : Constant
Bit rate : 640 Kbps
Channel(s) : 6 channels
Channel positions : Front: L C R, Surround: L R, LFE
Sampling rate : 48.0 KHz
Stream size : 536 MiB (6%)
Audio #3
ID : 4
Format : AC-3
Format/Info : Audio Coding 3
Codec ID : A_AC3
Duration : 1h 57mn
Bit rate mode : Constant
Bit rate : 192 Kbps
Channel(s) : 2 channels
Channel positions : L R
Sampling rate : 48.0 KHz
Stream size : 161 MiB (2%)
Title : commentary by Joe Wright
Text #1
ID : 5
Format : UTF-8
Codec ID : S_TEXT/UTF8
Codec ID/Info : UTF-8 Plain Text
Title : Надписи
Language : Russian
Text #2
ID : 6
Format : UTF-8
Codec ID : S_TEXT/UTF8
Codec ID/Info : UTF-8 Plain Text
Title : Полные
Language : Russian
Text #3
ID : 7
Format : UTF-8
Codec ID : S_TEXT/UTF8
Codec ID/Info : UTF-8 Plain Text
Language : Ukrainian
Text #4
ID : 8
Format : UTF-8
Codec ID : S_TEXT/UTF8
Codec ID/Info : UTF-8 Plain Text
Text #5
ID : 9
Format : UTF-8
Codec ID : S_TEXT/UTF8
Codec ID/Info : UTF-8 Plain Text
Title : commentary by Joe Wright
Language : Russian
Menu
00:00:00.000 : en:00:00:00.000
00:05:00.000 : en:00:05:00.000
00:10:00.000 : en:00:10:00.000
00:15:00.000 : en:00:15:00.000
00:20:00.000 : en:00:20:00.000
00:25:00.000 : en:00:25:00.000
00:30:00.000 : en:00:30:00.000
00:35:00.000 : en:00:35:00.000
00:40:00.000 : en:00:40:00.000
00:45:00.000 : en:00:45:00.000
00:50:00.000 : en:00:50:00.000
00:55:00.000 : en:00:55:00.000
01:00:00.000 : en:01:00:00.000
01:05:00.000 : en:01:05:00.000
01:10:00.000 : en:01:10:00.000
01:15:00.000 : en:01:15:00.000
01:20:00.000 : en:01:20:00.000
01:25:00.000 : en:01:25:00.000
01:30:00.000 : en:01:30:00.000
01:35:00.000 : en:01:35:00.000
01:40:00.000 : en:01:40:00.000
01:45:00.000 : en:01:45:00.000
01:50:00.000 : en:01:50:00.000
01:55:00.000 : en:01:55:00.000
-Сохранены оригинальные чаптеры-Скриншоты:

[Цитировать]



Показать сообщения:    

Текущее время: 03-Дек 01:21

Часовой пояс: UTC + 3


Вы не можете начинать темы
Вы не можете отвечать на сообщения
Вы не можете редактировать свои сообщения
Вы не можете удалять свои сообщения
Вы не можете голосовать в опросах
Вы не можете прикреплять файлы к сообщениям
Вы не можете скачивать файлы

!ВНИМАНИЕ!
Сайт не предоставляет электронные версии произведений, а занимается лишь коллекционированием и каталогизацией ссылок, присылаемых и публикуемых на форуме нашими читателями. Если вы являетесь правообладателем какого-либо представленного материала и не желаете, чтобы ссылка на него находилась в нашем каталоге, свяжитесь с нами, и мы незамедлительно удалим ее. Файлы для обмена на трекере предоставлены пользователями сайта, и администрация не несет ответственности за их содержание. Просьба не заливать файлы, защищенные авторскими правами, а также файлы нелегального содержания!