[ Сегодня идет свободное скачивание без начисления Download ]


Статистика раздачи
Нет
 
   
 
Top  
 
 
-Машина Джейн Мэнсфилд / Jayne Mansfield's Car (2012) BDRip [720p] [Line]- Год выпуска: 2012
Производство: США, Россия
Жанр: Драма
Перевод: Дублированный | Line
Субтитры: Отсутствуют-Режиссер: Билли Боб Торнтон
Актеры: Рэй Стивенсон, Джон Хёрт, Кевин Бейкон, Роберт Патрик, Билли Боб Торнтон, Роберт Дювалл, Шоуни Смит, Фрэнсис О’Коннор, Типпи Хедрен, Кэтрин ЛаНаса-Продюсер: Гейер Косински, Александр Роднянский, Сергей Беспалов-Описание фильма:
История о сложных человеческих взаимоотношениях, о том, как разные поколения относятся к войне, жизни и смерти. Конец 60-х годов. Американка бросает мужа, уходит к англичанину и уезжает с ним на Туманный Альбион. Когда женщина умирает, бывший супруг должен исполнить последнюю волю почившей и похоронить её на родной земле, в Алабаме. Они не виделись вот уже 30 лет, и приехав в Англию за прахом, покинутый муж встречается со второй семьей своей пассии — тут и начинается самое интересное.-
Рейтинг R - лицам до 17 лет обязательно присутствие взрослого!-Дата мировой премьеры: 13 февраля 2012
Дата российской премьеры: 26 сентября 2013, «Кино без границ» -Продолжительность: 02:01:30
Качество видео: BDRip 720p [profile-LQ]
Видео: MPEG-4/H.264 AVC | 1280x544 | 4 920 Kbps | [email protected] | 23.976 fps
Аудио #1: AC3, 2.0, 48,0 КГц, 192 kbps | DUB [Line] [Русский]
Аудио #2: DTS, 5.1, 48,0 КГц, 1510 kbps | Original [Английский]

MediaInfo

Format                                   : Matroska
Format version                           : Version 4 / Version 2
File size                                : 5.62 GiB
Duration                                 : 2h 1mn
Overall bit rate                         : 6 623 Kbps
Movie name                               : Release by Arrow
Encoded date                             : UTC 2014-01-18 20:42:27
Writing application                      : mkvmerge v6.6.0 ('The Edge Of The In Between') built on Dec  1 2013 17:55:00
Writing library                          : libebml v1.3.0 + libmatroska v1.4.1
Video
ID                                       : 1
Format                                   : AVC
Format/Info                              : Advanced Video Codec
Format profile                           : [url=mailto:[email protected]][email protected][/url]
Format settings, CABAC                   : Yes
Format settings, ReFrames                : 5 frames
Codec ID                                 : V_MPEG4/ISO/AVC
Duration                                 : 2h 1mn
Bit rate                                 : 4 920 Kbps
Width                                    : 1 280 pixels
Height                                   : 544 pixels
Display aspect ratio                     : 2.35:1
Frame rate mode                          : Constant
Frame rate                               : 23.976 fps
Color space                              : YUV
Chroma subsampling                       : 4:2:0
Bit depth                                : 8 bits
Scan type                                : Progressive
Bits/(Pixel*Frame)                       : 0.295
Stream size                              : 4.07 GiB (72%)
Title                                    : Машина Джейн Мэнсфилд
Writing library                          : x264 core 129 r2245 bc13772
Encoding settings                        : cabac=1 / ref=5 / deblock=1:0:0 / analyse=0x3:0x133 / me=umh / subme=8 / psy=1 / psy_rd=1.00:0.00 / mixed_ref=1 / me_range=16 / chroma_me=1 / trellis=1 / 8x8dct=1 / cqm=0 / deadzone=21,11 / fast_pskip=0 / chroma_qp_offset=-2 / threads=12 / lookahead_threads=2 / sliced_threads=0 / nr=0 / decimate=1 / interlaced=0 / bluray_compat=0 / constrained_intra=0 / bframes=3 / b_pyramid=2 / b_adapt=1 / b_bias=0 / direct=1 / weightb=1 / open_gop=0 / weightp=2 / keyint=250 / keyint_min=23 / scenecut=40 / intra_refresh=0 / rc_lookahead=40 / rc=2pass / mbtree=1 / bitrate=4920 / ratetol=1.0 / qcomp=0.60 / qpmin=0 / qpmax=69 / qpstep=4 / cplxblur=20.0 / qblur=0.5 / ip_ratio=1.40 / aq=1:1.00
Language                                 : English
Default                                  : No
Forced                                   : No
Audio #1
ID                                       : 2
Format                                   : AC-3
Format/Info                              : Audio Coding 3
Mode extension                           : CM (complete main)
Format settings, Endianness              : Big
Codec ID                                 : A_AC3
Duration                                 : 2h 1mn
Bit rate mode                            : Constant
Bit rate                                 : 192 Kbps
Channel(s)                               : 2 channels
Channel positions                        : Front: L R
Sampling rate                            : 48.0 KHz
Bit depth                                : 16 bits
Compression mode                         : Lossy
Stream size                              : 167 MiB (3%)
Title                                    : DUB [Line]
Language                                 : Russian
Default                                  : Yes
Forced                                   : Yes
Audio #2
ID                                       : 3
Format                                   : DTS
Format/Info                              : Digital Theater Systems
Codec ID                                 : A_DTS
Duration                                 : 2h 1mn
Bit rate mode                            : Constant
Bit rate                                 : 1 510 Kbps
Channel(s)                               : 6 channels
Channel positions                        : Front: L C R, Side: L R, LFE
Sampling rate                            : 48.0 KHz
Bit depth                                : 16 bits
Compression mode                         : Lossy
Delay relative to video                  : 11ms
Stream size                              : 1.28 GiB (23%)
Title                                    : Original
Language                                 : English
Default                                  : No
Forced                                   : No
Скриншоты:

[Цитировать]



Показать сообщения:    

Текущее время: 06-Дек 15:13

Часовой пояс: UTC + 3


Вы не можете начинать темы
Вы не можете отвечать на сообщения
Вы не можете редактировать свои сообщения
Вы не можете удалять свои сообщения
Вы не можете голосовать в опросах
Вы не можете прикреплять файлы к сообщениям
Вы не можете скачивать файлы

!ВНИМАНИЕ!
Сайт не предоставляет электронные версии произведений, а занимается лишь коллекционированием и каталогизацией ссылок, присылаемых и публикуемых на форуме нашими читателями. Если вы являетесь правообладателем какого-либо представленного материала и не желаете, чтобы ссылка на него находилась в нашем каталоге, свяжитесь с нами, и мы незамедлительно удалим ее. Файлы для обмена на трекере предоставлены пользователями сайта, и администрация не несет ответственности за их содержание. Просьба не заливать файлы, защищенные авторскими правами, а также файлы нелегального содержания!