[ Сегодня идет свободное скачивание без начисления Download ]


Статистика раздачи
Нет
 
   
 
Top  
 
 
- -Паранормальное явление - Тетралогия
[2007/2010/2011/2012]
- Название: Паранормальное явление - Тетралогия
Год выпуска: 2007/2010/2011/2012
Страна: США
Жанр: Ужасы, Триллер, Детектив
Качество: BDRip 720р
Формат: Mkv

Орен Пели - режиссер фильма Паранормальное явление. Родился в 1971 году в Израиле.
В 2006 году Пели занялся съёмками фильма «Паранормального явления». В 2009 году фильм показали во всех кинотеатрах мира. Несмотря на скромный бюджет ($15 тыс), он сумел создать кассовый хит из фильма ужасов ($200 млн).
Орен Пели начинал как программист. Когда он переехал в свой ??первый дом, то слышал скрипы и стуки, при этом в доме никого не было, и это подтолкнуло его к созданию фильма ужасов «Паранормальное явление». После успеха фильма, Пели решил снять продолжение, чтобы захватить аудиторию новым интересным способом.


Ожидается добавление:
  • Паранормальное явление 4 (Театральная версия)
  • Паранормальное явление 5
Паранормальное явление [2 в 1: Театральная и альтернативная версии] / Paranormal Activity [2 in 1: Theatrical and Alternate] (2007) BDRip [720p]
«Что происходит, пока вы спите?»- Год выпуска: 2007
Страна: США
Жанр: Ужасы, Детектив
Перевод: Дублированный | Лицензия
Субтитры: Вшитые Отключаемые
Язык субтитров: Русский, Английский-Режиссер: Орен Пели
В главных ролях: Кэти Физерстон, Мика Слот, Марк Фредерикс, Эмбер Армстронг, Эшли Палмер, Кристал Картрайт, Рэнди Макдауэлл, Тим Пайпер-Продюсер: Джейсон Блум, Орен Пели, Стивен Шнайдер-Описание фильма:
Молодая пара проживает в доме, который, как они подозревают, посещается некой злой силой. Чтобы зафиксировать паранормальную активность, они настраивают видеокамеру, чтобы записать свидетельство существования этой силы, появляющейся исключительно ночью, когда они спят. Тут-то и начинается самое интересное… и страшное!-
Рейтинг R - лицам до 17 лет обязательно присутствие взрослого!-Дата мировой премьеры: 14 октября 2007
Дата российской премьеры: 4 ноября 2009, «Каро-Премьер»
Дата выхода DVD: 19 января 2010, «Юниверсал Пикчерс Рус»-Продолжительность: 01:31:28
Качество видео: BDRip 720р
Видео: MPEG-4/H.264 AVC | 1280x720 | 5 337 Kbps | High@L4.1 | 24.000 fps
Аудио #1: AC3, 5.1, 48,0 КГц, 384 kbps | DUB [Русский]
Аудио #2: DTS, 5.1, 48,0 КГц, 1510 kbps | Original [Английский]

MediaInfo

Format                                   : Matroska
Format version                           : Version 2
File size                                : 4.62 GiB
Duration                                 : 1h 31mn
Overall bit rate                         : 7 231 Kbps
Encoded date                             : UTC 2010-01-19 23:27:46
Writing application                      : mkvmerge v3.0.0 ('Hang up your Hang-Ups') built on Dec 12 2009 15:20:35
Writing library                          : libebml v0.7.9 + libmatroska v0.8.1
TITLE                                    : Alternate Cut
TRACKSETEX                               : 3696661685 . . #3 eng
Video
ID                                       : 1
Format                                   : AVC
Format/Info                              : Advanced Video Codec
Format profile                           : [url=mailto:High@L4.1]High@L4.1[/url]
Format settings, CABAC                   : Yes
Format settings, ReFrames                : 8 frames
Codec ID                                 : V_MPEG4/ISO/AVC
Bit rate                                 : 5 337 Kbps
Width                                    : 1 280 pixels
Height                                   : 720 pixels
Display aspect ratio                     : 16:9
Frame rate mode                          : Variable
Original frame rate                      : 23.976 fps
Color space                              : YUV
Chroma subsampling                       : 4:2:0
Bit depth                                : 8 bits
Scan type                                : Progressive
Bits/(Pixel*Frame)                       : 0.242
Writing library                          : x264 core 80 r1376M 3feaec2
Encoding settings                        : cabac=1 / ref=8 / deblock=1:-3:-3 / analyse=0x3:0x113 / me=umh / subme=9 / psy=1 / psy_rd=0.9:0.1 / mixed_ref=1 / me_range=32 / chroma_me=1 / trellis=2 / 8x8dct=1 / cqm=0 / deadzone=21,11 / fast_pskip=0 / chroma_qp_offset=-3 / threads=6 / sliced_threads=0 / nr=0 / decimate=1 / mbaff=0 / constrained_intra=0 / bframes=6 / b_pyramid=2 / b_adapt=2 / b_bias=0 / direct=3 / wpredb=1 / wpredp=2 / keyint=250 / keyint_min=25 / scenecut=40 / rc=2pass / mbtree=0 / bitrate=5337 / ratetol=1.0 / qcomp=0.60 / qpmin=10 / qpmax=51 / qpstep=4 / cplxblur=20.0 / qblur=0.5 / ip_ratio=1.40 / pb_ratio=1.30 / aq=1:0.70
Language                                 : English
Default                                  : Yes
Forced                                   : No
Audio #1
ID                                       : 2
Format                                   : AC-3
Format/Info                              : Audio Coding 3
Mode extension                           : CM (complete main)
Format settings, Endianness              : Big
Codec ID                                 : A_AC3
Duration                                 : 1h 31mn
Bit rate mode                            : Constant
Bit rate                                 : 384 Kbps
Channel(s)                               : 6 channels
Channel positions                        : Front: L C R, Side: L R, LFE
Sampling rate                            : 48.0 KHz
Bit depth                                : 16 bits
Compression mode                         : Lossy
Stream size                              : 251 MiB (5%)
Title                                    : AC3 5.1 384 kbps
Language                                 : Russian
Default                                  : Yes
Forced                                   : No
Audio #2
ID                                       : 3
Format                                   : DTS
Format/Info                              : Digital Theater Systems
Codec ID                                 : A_DTS
Duration                                 : 1h 31mn
Bit rate mode                            : Constant
Bit rate                                 : 1 510 Kbps
Channel(s)                               : 6 channels
Channel positions                        : Front: L C R, Side: L R, LFE
Sampling rate                            : 48.0 KHz
Bit depth                                : 24 bits
Compression mode                         : Lossy
Stream size                              : 988 MiB (21%)
Title                                    : DTS 5.1 1536 kbps
Language                                 : English
Default                                  : No
Forced                                   : No
Text #1
ID                                       : 4
Format                                   : UTF-8
Codec ID                                 : S_TEXT/UTF8
Codec ID/Info                            : UTF-8 Plain Text
Language                                 : Russian
Default                                  : No
Forced                                   : No
Text #2
ID                                       : 5
Format                                   : UTF-8
Codec ID                                 : S_TEXT/UTF8
Codec ID/Info                            : UTF-8 Plain Text
Language                                 : English
Default                                  : No
Forced                                   : No
Text #3
ID                                       : 6
Format                                   : UTF-8
Codec ID                                 : S_TEXT/UTF8
Codec ID/Info                            : UTF-8 Plain Text
Title                                    : Tol'ko nadpisi
Language                                 : Russian
Default                                  : No
Forced                                   : No
Text #4
ID                                       : 7
Format                                   : UTF-8
Codec ID                                 : S_TEXT/UTF8
Codec ID/Info                            : UTF-8 Plain Text
Title                                    : Alternate Ending Only
Language                                 : Russian
Default                                  : No
Forced                                   : No

Знаете ли вы, что...

  • Фильм был снят за одну неделю.
  • Съемки фильма проходили в собственном доме Орена Пели — режиссера фильма.

Внимание!

Фильм был снят за одну неделю.
Раздача включает в себя две версии фильма - театральную и альтернативную. По умолчанию включается театральная версия, вышедшая на DVD. Для включения альтернативной версии нажмите правой кнопкой мыши на иконку "Haali Media Splitter" в трее (рядом с часами) и выберите пункт "Alternate Cut".
Если что-то работает не так, как я написал, установите последнюю версию Haali Media Splitter - это и для других фильмов лишним не будет.
Alternate Cut это, фактически, альтернативная концовка (заменены последние 5 минут 11 секунд). Там всего три фразы на английском, которые переведены субтитрами, включающимися по умолчанию при выборе альтернативной версии.
Скриншоты:

-Паранормальное явление 2 / Paranormal Activity 2 (2010) BDRip [720p]
«Last year you demanded it. But that was just the beginning»- Год выпуска: 2010
Страна: США
Жанр: Ужасы
Перевод: Дублированный | Лицензия
Субтитры: Вшитые Отключаемые
Язык субтитров: Русский, Английский-Режиссер: Тод «Кип» Уильямс
В главных ролях: Брайан Боланд, Спрэг Грэйден, Молли Эфраим, Вивис Кортес, Кэти Физерстон, Мика Слот, Сет Гинсберг, Дэвид Биренд, Уильям Хуан Прието, Джексон Ксения Прието-Продюсер: Джейсон Блум, Акива Голдсман, Орен Пели-Описание фильма:
После пережитых, как им казалось, серии «взломов» своего жилища, супруги решили установить камеры слежения по всему дому. И только теперь они понимают, что события, которые разворачиваются перед ними, куда более зловещие…-
Рейтинг Рейтинг R - лицам до 17 лет обязательно присутствие взрослого!!-Дата мировой премьеры: 20 октября 2010
Дата российской премьеры: 21 октября 2010, «Централ Партнершип»
Дата украинской премьеры: 4 ноября 2010
Дата выхода DVD/Blu Ray: 15 марта 2011, «Юниверсал Пикчерс Рус»-Продолжительность: 01:31:07
Качество видео: BDRip 720р
Видео: MPEG-4/H.264 AVC | 1280x720 | 6 214 Kbps | High@L4.0 | 24.000 fps
Аудио #1: AC3, 5.1, 48,0 КГц, 640 kbps | DUB [Русский]
Аудио #2: DTS, 5.1, 48,0 КГц, 1510 kbps | Original [Английский]

MediaInfo

Format                                   : Matroska
Format version                           : Version 2
File size                                : 5.32 GiB
Duration                                 : 1h 31mn
Overall bit rate                         : 8 356 Kbps
Encoded date                             : UTC 2011-03-03 22:29:37
Writing application                      : mkvmerge v4.5.0 ('Speed of Light') сборка от Feb  1 2011 02:10:32
Writing library                          : libebml v1.2.0 + libmatroska v1.1.0
Video
ID                                       : 1
Format                                   : AVC
Format/Info                              : Advanced Video Codec
Format profile                           : [url=mailto:High@L4.0]High@L4.0[/url]
Format settings, CABAC                   : Yes
Format settings, ReFrames                : 8 frames
Codec ID                                 : V_MPEG4/ISO/AVC
Bit rate                                 : 6 214 Kbps
Width                                    : 1 280 pixels
Height                                   : 720 pixels
Display aspect ratio                     : 16:9
Frame rate mode                          : Variable
Original frame rate                      : 23.976 fps
Color space                              : YUV
Chroma subsampling                       : 4:2:0
Bit depth                                : 8 bits
Scan type                                : Progressive
Bits/(Pixel*Frame)                       : 0.281
Writing library                          : x264 core 92 r1510 33d382a
Encoding settings                        : cabac=1 / ref=8 / deblock=1:-1:-1 / analyse=0x3:0x133 / me=umh / subme=7 / psy=1 / psy_rd=1.00:0.10 / mixed_ref=1 / me_range=16 / chroma_me=1 / trellis=2 / 8x8dct=1 / cqm=0 / deadzone=21,11 / fast_pskip=0 / chroma_qp_offset=-3 / threads=12 / sliced_threads=0 / nr=0 / decimate=1 / interlaced=0 / constrained_intra=0 / bframes=3 / b_pyramid=2 / b_adapt=2 / b_bias=0 / direct=3 / wpredb=1 / wpredp=2 / keyint=250 / keyint_min=25 / scenecut=40 / intra_refresh=0 / rc_lookahead=50 / rc=2pass / mbtree=1 / bitrate=6214 / ratetol=1.0 / qcomp=0.60 / qpmin=10 / qpmax=51 / qpstep=4 / cplxblur=20.0 / qblur=0.5 / ip_ratio=1.40 / aq=1:1.00
Language                                 : English
Default                                  : Yes
Forced                                   : No
Audio #1
ID                                       : 2
Format                                   : AC-3
Format/Info                              : Audio Coding 3
Mode extension                           : CM (complete main)
Format settings, Endianness              : Big
Codec ID                                 : A_AC3
Duration                                 : 1h 31mn
Bit rate mode                            : Constant
Bit rate                                 : 640 Kbps
Channel(s)                               : 6 channels
Channel positions                        : Front: L C R, Side: L R, LFE
Sampling rate                            : 48.0 KHz
Bit depth                                : 16 bits
Compression mode                         : Lossy
Stream size                              : 417 MiB (8%)
Title                                    : AC3 5.1 @ 640 kb/s [Russian DUB Blu-ray CEE]
Language                                 : Russian
Default                                  : Yes
Forced                                   : No
Audio #2
ID                                       : 3
Format                                   : DTS
Format/Info                              : Digital Theater Systems
Codec ID                                 : A_DTS
Duration                                 : 1h 31mn
Bit rate mode                            : Constant
Bit rate                                 : 1 510 Kbps
Channel(s)                               : 6 channels
Channel positions                        : Front: L C R, Side: L R, LFE
Sampling rate                            : 48.0 KHz
Bit depth                                : 24 bits
Compression mode                         : Lossy
Stream size                              : 984 MiB (18%)
Title                                    : DTS 5.1 @ 1510 kb/s [English]
Language                                 : English
Default                                  : No
Forced                                   : No
Text #1
ID                                       : 4
Format                                   : UTF-8
Codec ID                                 : S_TEXT/UTF8
Codec ID/Info                            : UTF-8 Plain Text
Title                                    : Russian SUB
Language                                 : Russian
Default                                  : No
Forced                                   : No
Text #2
ID                                       : 5
Format                                   : UTF-8
Codec ID                                 : S_TEXT/UTF8
Codec ID/Info                            : UTF-8 Plain Text
Title                                    : English SUB
Language                                 : English
Default                                  : No
Forced                                   : No

Знаете ли вы, что...

  • Картина доставлялась в кинотеатры под кодовым названием «Sharpie 79».
Скриншоты:

-Паранормальное явление 3 / Paranormal Activity 3 (2011) BDRip [720p]
«Узнайте, как всё началось»- Год выпуска: 2011
Страна: США
Жанр: Ужасы, Триллер
Перевод: Дублированный | Лицензия
Субтитры: Вшитые Отключаемые
Язык субтитров: Русский, Английский, Украинский-Режиссер: Генри Джуст, Эриель Шульман
В главных ролях: Спрэг Грэйден, Кристофер Николас Смит, Дастин Ингрэм, Лорен Биттнер, Хлоя Ксенджери, Джесика Браун, Халли Фут, Джоанна Э. Брэдди, Кэти Физерстон, Брайан Боланд-Продюсер: Джейсон Блум, Акива Голдсман, Орен Пели-Описание фильма:
Действие фильма разворачивается в 1988 году. В доме, где живет семья с двумя детьми, начинают происходить странные вещи. Кристи, одна из девочек, начинает общаться с невидимым другом Тоби, который поселился в их доме.-
Рейтинг Рейтинг R - лицам до 17 лет обязательно присутствие взрослого!!-Дата мировой премьеры: 14 октября 2011
Дата российской премьеры: 20 октября 2011, «Централ Партнершип»
Дата украинской премьеры: 20 октября 2011, «B&H Film Distribution Company»
Дата выхода DVD/Blu Ray: 16 февраля 2012, «Новый Диск»-Продолжительность: 01:24:08
Качество видео: BDRip 720р
Видео: MPEG-4/H.264 AVC | 1280x720 | 5 453 Kbps | High@L4.1 | 24.000 fps
Аудио #1: AC3, 5.1, 48,0 КГц, 640 kbps | DUB [Русский]
Аудио #2: DTS, 5.1, 48,0 КГц, 448 kbps | Original [Английский]
Дополнительно: *Сохранены оригинальные чаптеры как на Blu Ray

MediaInfo

Format                                   : Matroska
Format version                           : Version 2
File size                                : 4.56 GiB
Duration                                 : 1h 24mn
Overall bit rate                         : 7 757 Kbps
Movie name                               : BlackSnow
Encoded date                             : UTC 2012-02-13 15:34:17
Writing application                      : mkvmerge v4.9.1 ('Ich will') сборка от Jul 11 2011 23:53:15
Writing library                          : libebml v1.2.1 + libmatroska v1.1.1
Video
ID                                       : 1
Format                                   : AVC
Format/Info                              : Advanced Video Codec
Format profile                           : [url=mailto:High@L4.1]High@L4.1[/url]
Format settings, CABAC                   : Yes
Format settings, ReFrames                : 9 frames
Codec ID                                 : V_MPEG4/ISO/AVC
Bit rate                                 : 5 453 Kbps
Width                                    : 1 280 pixels
Height                                   : 720 pixels
Display aspect ratio                     : 16:9
Frame rate mode                          : Variable
Original frame rate                      : 23.976 fps
Color space                              : YUV
Chroma subsampling                       : 4:2:0
Bit depth                                : 8 bits
Scan type                                : Progressive
Writing library                          : x264 core 120 r2120 0c7dab9
Encoding settings                        : cabac=1 / ref=9 / deblock=1:-3:-3 / analyse=0x3:0x133 / me=umh / subme=11 / psy=1 / psy_rd=1.10:0.10 / mixed_ref=1 / me_range=24 / chroma_me=1 / trellis=2 / 8x8dct=1 / cqm=0 / deadzone=21,11 / fast_pskip=0 / chroma_qp_offset=-3 / threads=12 / sliced_threads=0 / nr=0 / decimate=0 / interlaced=0 / bluray_compat=0 / constrained_intra=0 / bframes=7 / b_pyramid=2 / b_adapt=2 / b_bias=0 / direct=3 / weightb=1 / open_gop=0 / weightp=2 / keyint=250 / keyint_min=23 / scenecut=40 / intra_refresh=0 / rc_lookahead=150 / rc=crf / mbtree=1 / crf=16.0 / qcomp=0.60 / qpmin=0 / qpmax=69 / qpstep=4 / ip_ratio=1.40 / aq=1:1.00
Language                                 : English
Default                                  : Yes
Forced                                   : No
Audio #1
ID                                       : 2
Format                                   : AC-3
Format/Info                              : Audio Coding 3
Mode extension                           : CM (complete main)
Format settings, Endianness              : Big
Codec ID                                 : A_AC3
Duration                                 : 1h 24mn
Bit rate mode                            : Constant
Bit rate                                 : 640 Kbps
Channel(s)                               : 6 channels
Channel positions                        : Front: L C R, Side: L R, LFE
Sampling rate                            : 48.0 KHz
Bit depth                                : 16 bits
Compression mode                         : Lossy
Stream size                              : 385 MiB (8%)
Title                                    : DUB Blu-ray CEE
Language                                 : Russian
Default                                  : Yes
Forced                                   : No
Audio #2
ID                                       : 3
Format                                   : DTS
Format/Info                              : Digital Theater Systems
Codec ID                                 : A_DTS
Duration                                 : 1h 24mn
Bit rate mode                            : Constant
Bit rate                                 : 1 510 Kbps
Channel(s)                               : 6 channels
Channel positions                        : Front: L C R, Side: L R, LFE
Sampling rate                            : 48.0 KHz
Bit depth                                : 24 bits
Compression mode                         : Lossy
Stream size                              : 909 MiB (19%)
Title                                    : Original
Language                                 : English
Default                                  : No
Forced                                   : No
Text #1
ID                                       : 4
Format                                   : UTF-8
Codec ID                                 : S_TEXT/UTF8
Codec ID/Info                            : UTF-8 Plain Text
Title                                    : Full
Language                                 : Russian
Default                                  : No
Forced                                   : No
Text #2
ID                                       : 5
Format                                   : UTF-8
Codec ID                                 : S_TEXT/UTF8
Codec ID/Info                            : UTF-8 Plain Text
Title                                    : Full
Language                                 : Ukrainian
Default                                  : No
Forced                                   : No
Text #3
ID                                       : 6
Format                                   : UTF-8
Codec ID                                 : S_TEXT/UTF8
Codec ID/Info                            : UTF-8 Plain Text
Title                                    : Full
Language                                 : English
Default                                  : No
Forced                                   : No
Text #4
ID                                       : 7
Format                                   : UTF-8
Codec ID                                 : S_TEXT/UTF8
Codec ID/Info                            : UTF-8 Plain Text
Title                                    : SDH
Language                                 : English
Default                                  : No
Forced                                   : No
Menu
00:00:00.000                             : en:00:00:00.000
00:04:25.390                             : en:00:04:25.390
00:08:56.786                             : en:00:08:56.786
00:12:53.564                             : en:00:12:53.564
00:16:41.000                             : en:00:16:41.000
00:23:11.390                             : en:00:23:11.390
00:29:45.200                             : en:00:29:45.200
00:33:52.030                             : en:00:33:52.030
00:39:53.391                             : en:00:39:53.391
00:47:54.872                             : en:00:47:54.872
00:59:03.540                             : en:00:59:03.540
01:02:48.765                             : en:01:02:48.765
01:06:39.287                             : en:01:06:39.287
01:18:45.721                             : en:01:18:45.721
Скриншоты:

-Паранормальное явление 4 / Paranormal Activity 4 (2012) BDRip [720p]
«Что же произошло на самом деле ?»- Год выпуска: 2012
Страна: США
Жанр: Ужасы
Перевод: Дублированный | Лицензия
Субтитры: Вшитые Отключаемые
Язык субтитров: Русский, Английский, Украинский-Режиссер: Генри Джуст, Эриель Шульман
В главных ролях: Кэтрин Ньютон, Кэти Физерстон, Мэтт Шайвли, Эйден Лавкамп, Брэйди Аллен, Стивен Данэм, Алексондра Ли, Джорджика Петтус, Алиша Боэ, Брэндон Хэйл Эггерсен-Продюсер: Джейсон Блум, Акива Голдсман, Кристофер Б. Лэндон-Описание фильма:
Действие разворачивается спустя 5 лет с момента событий фильма «Паранормальное явление 2». Алекс и её бойфренд борются с паранормальной активностью в их доме.-
Рейтинг Рейтинг R - лицам до 17 лет обязательно присутствие взрослого!!-Дата мировой премьеры: 27 сентября 2012
Дата российской премьеры: 18 октября 2012, «Централ Партнершип»
Дата украинской премьеры: 18 октября 2012, «B&H Film Distribution Company»
Дата выхода DVD/Blu Ray: 11 февраля 2013, «Новый Диск»-Продолжительность: 01:27:08
Качество видео: BDRip 720р
Видео: MPEG-4/H.264 AVC | 1280x720 | 6 394 Kbps | High@L4.0 | 24.000 fps
Аудио #1: AC3, 5.1, 48,0 КГц, 640 kbps | DUB [Русский]
Аудио #2: DTS, 5.1, 48,0 КГц, 448 kbps | Original [Английский]

MediaInfo

Format                                   : Matroska
Format version                           : Version 2
File size                                : 5.20 GiB
Duration                                 : 1h 27mn
Overall bit rate                         : 8 537 Kbps
Encoded date                             : UTC 2013-02-07 12:24:59
Writing application                      : mkvmerge v5.2.0 ('I can't explain') built on Dec 18 2011 18:12:03
Writing library                          : libebml v1.2.3 + libmatroska v1.3.0
Video
ID                                       : 1
Format                                   : AVC
Format/Info                              : Advanced Video Codec
Format profile                           : [url=mailto:High@L4.0]High@L4.0[/url]
Format settings, CABAC                   : Yes
Format settings, ReFrames                : 8 frames
Codec ID                                 : V_MPEG4/ISO/AVC
Bit rate                                 : 6 394 Kbps
Width                                    : 1 280 pixels
Height                                   : 720 pixels
Display aspect ratio                     : 16:9
Frame rate mode                          : Variable
Original frame rate                      : 23.976 fps
Color space                              : YUV
Chroma subsampling                       : 4:2:0
Bit depth                                : 8 bits
Scan type                                : Progressive
Bits/(Pixel*Frame)                       : 0.289
Writing library                          : x264 core 125 r2208 d9d2288
Encoding settings                        : cabac=1 / ref=8 / deblock=1:-1:-1 / analyse=0x3:0x133 / me=umh / subme=7 / psy=1 / psy_rd=1.00:0.10 / mixed_ref=1 / me_range=16 / chroma_me=1 / trellis=2 / 8x8dct=1 / cqm=0 / deadzone=21,11 / fast_pskip=0 / chroma_qp_offset=-3 / threads=12 / lookahead_threads=2 / sliced_threads=0 / nr=0 / decimate=1 / interlaced=0 / bluray_compat=0 / constrained_intra=0 / bframes=3 / b_pyramid=2 / b_adapt=2 / b_bias=0 / direct=3 / weightb=1 / open_gop=0 / weightp=2 / keyint=250 / keyint_min=23 / scenecut=40 / intra_refresh=0 / rc_lookahead=50 / rc=2pass / mbtree=1 / bitrate=6394 / ratetol=1.0 / qcomp=0.60 / qpmin=0 / qpmax=69 / qpstep=4 / cplxblur=20.0 / qblur=0.5 / ip_ratio=1.40 / aq=1:1.00
Language                                 : English
Default                                  : Yes
Forced                                   : Yes
Audio #1
ID                                       : 2
Format                                   : AC-3
Format/Info                              : Audio Coding 3
Mode extension                           : CM (complete main)
Format settings, Endianness              : Big
Codec ID                                 : A_AC3
Duration                                 : 1h 27mn
Bit rate mode                            : Constant
Bit rate                                 : 640 Kbps
Channel(s)                               : 6 channels
Channel positions                        : Front: L C R, Side: L R, LFE
Sampling rate                            : 48.0 KHz
Bit depth                                : 16 bits
Compression mode                         : Lossy
Stream size                              : 399 MiB (7%)
Title                                    : DD 5.1 @ 640 kbps - Dub, BD CEE
Language                                 : Russian
Default                                  : Yes
Forced                                   : Yes
Audio #2
ID                                       : 3
Format                                   : DTS
Format/Info                              : Digital Theater Systems
Codec ID                                 : A_DTS
Duration                                 : 1h 27mn
Bit rate mode                            : Constant
Bit rate                                 : 1 510 Kbps
Channel(s)                               : 6 channels
Channel positions                        : Front: L C R, Side: L R, LFE
Sampling rate                            : 48.0 KHz
Bit depth                                : 24 bits
Compression mode                         : Lossy
Stream size                              : 941 MiB (18%)
Title                                    : DTS 5.1 @ 1536 kbps
Language                                 : English
Default                                  : No
Forced                                   : No
Text #1
ID                                       : 4
Format                                   : UTF-8
Codec ID                                 : S_TEXT/UTF8
Codec ID/Info                            : UTF-8 Plain Text
Language                                 : Russian
Default                                  : No
Forced                                   : No
Text #2
ID                                       : 5
Format                                   : UTF-8
Codec ID                                 : S_TEXT/UTF8
Codec ID/Info                            : UTF-8 Plain Text
Language                                 : Ukrainian
Default                                  : No
Forced                                   : No
Text #3
ID                                       : 6
Format                                   : UTF-8
Codec ID                                 : S_TEXT/UTF8
Codec ID/Info                            : UTF-8 Plain Text
Language                                 : English
Default                                  : No
Forced                                   : No

Знаете ли вы, что...

  • Персонаж Брэйди Аллена, Робби, был назван в честь Робби Мангейма — ребенка, который в 1959 году был одержим бесами, в результате чего пришлось прибегнуть с изгнанию нечистой силы, чтобы спасти ему жизнь.
  • Как и в предыдущих трех фильмах этой серии, студия Paramount для международной рекламы этой картины пользовалась услугами исследователя паранормальных явлений Кристофера Чакона, который признан одним из ведущих авторитетов в области паранормальных явлений в мире.
  • Родители в фильме, которых сыграли Стивен Данэм и Алексондра Ли, на самом деле являются супружеской парой. К несчастью, Данэм умер 14 сентября 2012 года от сердечного приступа, незадолго до того момента, когда фильм вышел на экраны.

Ошибки в фильме

  • Когда Алекс залезает с Беном в домик на дереве, у нее вьющиеся волосы, а в следующем кадре они прямые.
  • После того, как мяч прыгает вниз по лестнице, Алекс поднимается на звуки шума, и мяч все еще на лестнице. Когда она спускается, мяча уже нет.
  • В финальной сцене, когда Алекс ищет своего отца в пустой спальне, можно услышать, как мальчик (предположительно Уайт) называет свою сестру Катрин, а не Алекс.
  • Очиститель воздуха в форме лягушки в комнате Уайта и Робби то исчезает, то появляется при смене кадра.
  • Когда Алекс выходит в сад вместе с Беном после ночи, проведенной с друзьями, ее волосы завиваются. Когда она возвращается, они прямые.
  • В одной сцене Алекс идет по разбросанным игрушкам в комнату Уайта. Она проверяет его шкаф, и в этот момент позади нее игрушечный поезд сам по себе начинает ехать. Испугавшись, она разворачивается, чтобы пойти вниз. Когда она идет из его комнаты обратно, игрушек уже нет.
Скриншоты:

[Цитировать]



Показать сообщения:    

Текущее время: 08-Дек 17:12

Часовой пояс: UTC + 3


Вы не можете начинать темы
Вы не можете отвечать на сообщения
Вы не можете редактировать свои сообщения
Вы не можете удалять свои сообщения
Вы не можете голосовать в опросах
Вы не можете прикреплять файлы к сообщениям
Вы не можете скачивать файлы

!ВНИМАНИЕ!
Сайт не предоставляет электронные версии произведений, а занимается лишь коллекционированием и каталогизацией ссылок, присылаемых и публикуемых на форуме нашими читателями. Если вы являетесь правообладателем какого-либо представленного материала и не желаете, чтобы ссылка на него находилась в нашем каталоге, свяжитесь с нами, и мы незамедлительно удалим ее. Файлы для обмена на трекере предоставлены пользователями сайта, и администрация не несет ответственности за их содержание. Просьба не заливать файлы, защищенные авторскими правами, а также файлы нелегального содержания!