[ Сегодня идет свободное скачивание без начисления Download ]


Статистика раздачи
Нет
 
   
 
Top  
 
 
-Подарок на Рождество / Jingle All the Way (1996) BDRemux [1080p]- Год выпуска: 1996
Производство: США
Жанр: комедия, семейный
Описание фильма:
Ужасно занятый на работе отец постоянно опаздывает на семейные мероприятия. После очередной «неявки» на выступление собственного сына по карате он обещает купить ему на Рождество суперигрушку - Турбомена и, естественно, в суете рождественских хлопот благополучно забывает об обещании.
И вот начинается лихорадочная гонка за упомянутой игрушкой в самый последний день. Но уж больно много желающих, а игрушек осталось всего ничего.

Режиссер: Брайан Левант / Brian Levant
Актеры: Арнольд Шварценеггер, Синбад, Фил Хартмен, Рита Уилсон, Роберт Конрад, Мартин Мулл, Джейк Ллойд, Джеймс Белуши, Э.Дж. Де Ла Пена, Лорейн Ньюмен
Продолжительность: 01:29:32
Качество видео: BDRemux
Перевод: Двухголосый закадровый (3 варианта), Авторский (одноголосый закадровый)
Язык субтитров: Русский, Английский
Вид субтитров: Вшитые отключаемые

Релиз: hdclub
Дата мировой премьеры: 16 ноября 1996 г.
Дата выхода DVD релиза: 24 декабря 2009 г., «Двадцатый Век Фокс СНГ»
Дата выхода Blu-Ray релиза: 22 декабря 2011 г., «Двадцатый Век Фокс СНГ»
Видеокодек: MPEG-4 AVC/H.264
Битрейт видео: ~32,0 Mbps avg
Размер кадра: 1920x1080, 23.976 fps / 16:9 / High Profile 4.1
Аудио 1: DTS Audio Russian 5.1 / 48 kHz / 768 kbps / 24-bit [Двухголосый закадровый, Blu-Ray CEE]
Аудио 2: Dolby Digital Audio Russian 2.0 / 48 kHz / 192 kbps [Двухголосый закадровый, Первый канал] tvrip
Аудио 3: Dolby Digital Audio Russian 2.0 / 48 kHz / 192 kbps [Двухголосый закадровый, Лазер-Видео]* vhs
Аудио 4: Dolby Digital Audio Russian 5.1 / 48 kHz / 384 kbps [Одноголосый закадровый, Ю.Живов]
Аудио 5: DTS-HD Master Audio English 5.1 / 48 kHz / 4381 kbps / 24-bit (DTS Core: 5.1 / 48 kHz / 1509 kbps / 24-bit)

MediaInfo:

General
Unique ID : 181535190363673925110034082152096089558 (0x889267E9989A48BFB36459D376F645D6)
Complete name : G:\bluray\Jingle.All.the.Way.1996.1080p.Bluray.TC.AVC.Remux.mkv
Format : Matroska
Format version : Version 2
File size : 23.1 GiB
Duration : 1h 29mn
Overall bit rate : 36.9 Mbps
Movie name : Jingle.All.the.Way.1996.1080p.Bluray.TC.AVC.Remux
Encoded date : UTC 2011-10-10 00:10:50
Writing application : mkvmerge v5.0.1 ('Es ist Sommer') built on Oct 9 2011 11:55:43
Writing library : libebml v1.2.2 + libmatroska v1.3.0
Video
ID : 1
Format : AVC
Format/Info : Advanced Video Codec
Format profile : [email protected]
Format settings, CABAC : Yes
Format settings, ReFrames : 4 frames
Codec ID : V_MPEG4/ISO/AVC
Duration : 1h 29mn
Bit rate mode : Variable
Bit rate : 32.0 Mbps
Width : 1 920 pixels
Height : 1 080 pixels
Display aspect ratio : 16:9
Frame rate : 23.976 fps
Color space : YUV
Chroma subsampling : 4:2:0
Bit depth : 8 bits
Scan type : Progressive
Bits/(Pixel*Frame) : 0.644
Stream size : 20.7 GiB (90%)
Title : uralmix
Audio #1
ID : 2
Format : DTS
Format/Info : Digital Theater Systems
Codec ID : A_DTS
Duration : 1h 29mn
Bit rate mode : Constant
Bit rate : 755 Kbps
Channel(s) : 6 channels
Channel positions : Front: L C R, Side: L R, LFE
Sampling rate : 48.0 KHz
Bit depth : 24 bits
Compression mode : Lossy
Stream size : 483 MiB (2%)
Title : CEE
Language : Russian
Audio #2
ID : 3
Format : AC-3
Format/Info : Audio Coding 3
Mode extension : CM (complete main)
Codec ID : A_AC3
Duration : 1h 29mn
Bit rate mode : Constant
Bit rate : 192 Kbps
Channel(s) : 2 channels
Channel positions : Front: L R
Sampling rate : 48.0 KHz
Bit depth : 16 bits
Compression mode : Lossy
Stream size : 123 MiB (1%)
Title : ОРТ
Language : Russian
Audio #3
ID : 4
Format : AC-3
Format/Info : Audio Coding 3
Mode extension : CM (complete main)
Codec ID : A_AC3
Duration : 1h 29mn
Bit rate mode : Constant
Bit rate : 192 Kbps
Channel(s) : 2 channels
Channel positions : Front: L R
Sampling rate : 48.0 KHz
Bit depth : 16 bits
Compression mode : Lossy
Stream size : 123 MiB (1%)
Title : Лазер Видео
Language : Russian
Audio #4
ID : 5
Format : AC-3
Format/Info : Audio Coding 3
Mode extension : CM (complete main)
Codec ID : A_AC3
Duration : 1h 29mn
Bit rate mode : Constant
Bit rate : 384 Kbps
Channel(s) : 6 channels
Channel positions : Front: L C R, Side: L R, LFE
Sampling rate : 48.0 KHz
Bit depth : 16 bits
Compression mode : Lossy
Stream size : 246 MiB (1%)
Title : авторский - Юрий Живов
Language : Russian
Audio #5
ID : 6
Format : DTS
Format/Info : Digital Theater Systems
Format profile : MA / Core
Codec ID : A_DTS
Duration : 1h 29mn
Bit rate mode : Variable
Bit rate : 1 561 Kbps / 1 510 Kbps
Channel(s) : 6 channels
Channel positions : Front: L C R, Side: L R, LFE
Sampling rate : 48.0 KHz
Bit depth : 24 bits
Compression mode : Lossless / Lossy
Language : English
Text #1
ID : 7
Format : UTF-8
Codec ID : S_TEXT/UTF8
Codec ID/Info : UTF-8 Plain Text
Language : Russian
Text #2
ID : 8
Format : UTF-8
Codec ID : S_TEXT/UTF8
Codec ID/Info : UTF-8 Plain Text
Language : English
Menu
00:00:00.000 : en:00:00:00.000
00:07:58.144 : en:00:07:58.144
00:13:46.242 : en:00:13:46.242
00:16:21.856 : en:00:16:21.856
00:18:36.741 : en:00:18:36.741
00:22:42.528 : en:00:22:42.528
00:24:48.862 : en:00:24:48.862
00:26:51.944 : en:00:26:51.944
00:29:14.002 : en:00:29:14.002
00:31:29.513 : en:00:31:29.513
00:37:39.299 : en:00:37:39.299
00:39:10.723 : en:00:39:10.723
00:42:15.366 : en:00:42:15.366
00:45:34.190 : en:00:45:34.190
00:53:30.624 : en:00:53:30.624
00:59:37.741 : en:00:59:37.741
01:01:56.379 : en:01:01:56.379
01:04:40.627 : en:01:04:40.627
01:09:00.303 : en:01:09:00.303
01:10:40.820 : en:01:10:40.820
01:14:15.368 : en:01:14:15.368
01:18:27.036 : en:01:18:27.036
01:21:21.502 : en:01:21:21.502
01:28:46.613 : en:01:28:46.613

Знаете ли вы, что...

• Как и в других комедиях (кроме «Последнего киногероя» и «Правдивой лжи»), Арнольд Шварценеггер отказался от гонорара, предпочтя ему долю с кассовых сборов.

Рецензия, отзыв о фильме

Помню первый раз посмотрел этот фильм давно в детстве. Он произвёл на меня огромное впечатление. Я ставлю его на один ряд с такими фильмами как «Один дома 1, 2».
Отличная новогодняя комедия для всей семьи в лучших её традициях, да ещё и с Арни в главной роли. Очень жалко, что на DVD этот фильм у нас ещё не выпускали.
10 из 10
Скриншоты:

[Цитировать]



Показать сообщения:    

Текущее время: 06-Дек 19:04

Часовой пояс: UTC + 3


Вы не можете начинать темы
Вы не можете отвечать на сообщения
Вы не можете редактировать свои сообщения
Вы не можете удалять свои сообщения
Вы не можете голосовать в опросах
Вы не можете прикреплять файлы к сообщениям
Вы не можете скачивать файлы

!ВНИМАНИЕ!
Сайт не предоставляет электронные версии произведений, а занимается лишь коллекционированием и каталогизацией ссылок, присылаемых и публикуемых на форуме нашими читателями. Если вы являетесь правообладателем какого-либо представленного материала и не желаете, чтобы ссылка на него находилась в нашем каталоге, свяжитесь с нами, и мы незамедлительно удалим ее. Файлы для обмена на трекере предоставлены пользователями сайта, и администрация не несет ответственности за их содержание. Просьба не заливать файлы, защищенные авторскими правами, а также файлы нелегального содержания!