[ Сегодня идет свободное скачивание без начисления Download ]


Статистика раздачи
Нет
 
   
 
Top  
 
 
-Taxi (1998) BDRemux- Год выпуска: 1998
Жанр: Боевик, Комедия, Криминал
Страна: Франция
Описание фильма:
Молодой таксист Даниэль помешан на быстрой езде. Как ураган проносится он по извилистым улицам Марселя на своем мощном ревущем звере «Пежо», пугая пассажиров и прохожих. Неподкупный полицейский Эмильен вынуждает его помочь в поимке банды грабителей, ускользающих от полиции на своих неуловимых «Мерседесах». И до самого конца не ясно, кто же сможет удержаться на крутом вираже…
Режиссер: Жерар Пирес
Актеры: Сами Насери, Фредерик Дифенталь, Марион Котийяр, Мануэла Гурари, Эмма Сьоберг, Бернар Фарси, Жорж Нери, Гай Нгуен, Морис Мурсия, Сабина Бэйл
Дата мировой премьеры: 8 апреля 1998

Продолжительность: 01:29:50
Перевод: Дубляж, Многоголосый закадровый, Двуголосый закадровый, Одноголосый закадровый
Язык субтитров: Русский (R5), Французкий, Английский
Вид субтитров: Вшитые
Качество видео: BDRemux
Контейнер: BDMV
Видеокодек: MPEG-4 AVC/H.264
Битрейт видео: 27937 kbps / 1080p / 23,976 fps / 16:9 / High Profile 4.1
Размер кадра: 1920 х 1080
Audio 01: Russian / Dolby Digital Audio / 5.1 / 48 kHz / 448 kbps | Dub (со вставками MVO) Мосфильм по заказу "CP Digital" (R5)
Audio 02: Russian / Dolby Digital Audio / 2.0 / 48 kHz / 192 kbps | DVO РТР / СТС
Audio 03: Russian / DTS-HD Master Audio / 5.1 / 48 kHz / 2260 kbps / 16-bit (DTS Core: 5.1 / 48 kHz / 1509 kbps / 16-bit) | DVO Пирамида / SuperBit
Audio 04: Russian / DTS Audio / 5.1 / 48 kHz / 768 kbps / 24-bit | DVO Союз Видео
Audio 05: Russian / DTS-HD Master Audio / 5.1 / 48 kHz / 2261 kbps / 16-bit (DTS Core: 5.1 / 48 kHz / 1509 kbps / 16-bit) | AVO Гаврилов
Audio 06: Russian / Dolby Digital Audio / 2.0 / 48 kHz / 192 kbps | AVO Cербин
Audio 07: Russian / DTS-HD Master Audio / 5.1 / 48 kHz / 2267 kbps / 16-bit (DTS Core: 5.1 / 48 kHz / 1509 kbps / 16-bit) | AVO Неизвестный
Audio 08: Ukrainian / Dolby Digital Audio / 1.0 / 48 kHz / 192 kbps | MVO Так Треба Продакшн / ICTV
Audio 09: Ukrainian / Dolby Digital Audio / 1.0 / 48 kHz / 192 kbps | MVO Новий Канал
Audio 10: Ukrainian / Dolby Digital Audio / 1.0 / 48 kHz / 192 kbps | DVO 1+1
Audio 11: French / DTS-HD Master Audio / 5.1 / 48 kHz / 2251 kbps / 16-bit (DTS Core: 5.1 / 48 kHz / 1509 kbps / 16-bit) | Оригинальный

MI

Disc Title: Taxi (1998) BDRemux
Disc Size: 28 471 650 788 bytes
Protection: AACS
BD-Java: No
BDInfo: 0.5.8
Notes:
BDINFO HOME:
Cinema Squid
http://www.cinemasquid.com/blu-ray/tools/bdinfo
INCLUDES FORUMS REPORT FOR:
AVS Forum Blu-ray Audio and Video Specifications Thread
http://www.avsforum.com/avs-vb/showthread.php?t=1155731
********************
PLAYLIST: 00000.MPLS
********************
Total   Video
Title                                                           Codec   Length  Movie Size      Disc Size       Bitrate Bitrate Main Audio Track                          Secondary Audio Track
-----                                                           ------  ------- --------------  --------------  ------- ------- ------------------                        ---------------------
00000.MPLS                                                      AVC     1:29:50 28 471 560 192  28 471 650 788  42,26   27,94   DD AC3 5.1 448Kbps                        DTS-HD Master 5.1 2260Kbps (48kHz/16-bit)
DISC INFO:
Disc Title:     Taxi (1998) BDRemux
Disc Size:      28 471 650 788 bytes
Protection:     AACS
BD-Java:        No
BDInfo:         0.5.8
PLAYLIST REPORT:
Name:                   00000.MPLS
Length:                 1:29:50.357 (h:m:s.ms)
Size:                   28 471 560 192 bytes
Total Bitrate:          42,26 Mbps
VIDEO:
Codec                   Bitrate             Description
-----                   -------             -----------
MPEG-4 AVC Video        27937 kbps          1080p / 23,976 fps / 16:9 / High Profile 4.1
AUDIO:
Codec                           Language        Bitrate         Description
-----                           --------        -------         -----------
Dolby Digital Audio             Russian         448 kbps        5.1 / 48 kHz / 448 kbps / DN -4dB
Dolby Digital Audio             Russian         192 kbps        2.0 / 48 kHz / 192 kbps / DN -4dB
DTS-HD Master Audio             Russian         2260 kbps       5.1 / 48 kHz / 2260 kbps / 16-bit (DTS Core: 5.1 / 48 kHz / 1509 kbps / 16-bit)
DTS Audio                       Russian         768 kbps        5.1 / 48 kHz / 768 kbps / 24-bit
DTS-HD Master Audio             Russian         2261 kbps       5.1 / 48 kHz / 2261 kbps / 16-bit (DTS Core: 5.1 / 48 kHz / 1509 kbps / 16-bit)
Dolby Digital Audio             Russian         192 kbps        2.0 / 48 kHz / 192 kbps / DN -4dB / Dolby Surround
DTS-HD Master Audio             Russian         2267 kbps       5.1 / 48 kHz / 2267 kbps / 16-bit (DTS Core: 5.1 / 48 kHz / 1509 kbps / 16-bit)
Dolby Digital Audio             Ukrainian       192 kbps        1.0 / 48 kHz / 192 kbps
Dolby Digital Audio             Ukrainian       192 kbps        1.0 / 48 kHz / 192 kbps
Dolby Digital Audio             Ukrainian       192 kbps        1.0 / 48 kHz / 192 kbps
DTS-HD Master Audio             French          2251 kbps       5.1 / 48 kHz / 2251 kbps / 16-bit (DTS Core: 5.1 / 48 kHz / 1509 kbps / 16-bit)
SUBTITLES:
Codec                           Language        Bitrate         Description
-----                           --------        -------         -----------
Presentation Graphics           Russian         51,807 kbps
Presentation Graphics           French          49,804 kbps
Presentation Graphics           English         38,241 kbps
FILES:
Name            Time In         Length          Size            Total Bitrate
----            -------         ------          ----            -------------
00000.M2TS      0:00:00.000     1:29:50.357     28 471 560 192  42 256
CHAPTERS:
Number          Time In         Length          Avg Video Rate  Max 1-Sec Rate  Max 1-Sec Time  Max 5-Sec Rate  Max 5-Sec Time  Max 10Sec Rate  Max 10Sec Time  Avg Frame Size  Max Frame Size  Max Frame Time
------          -------         ------          --------------  --------------  --------------  --------------  --------------  --------------  --------------  --------------  --------------  --------------
1               0:00:00.000     0:07:14.559     27 821 kbps     39 249 kbps     00:00:01.626    30 977 kbps     00:00:11.469    29 949 kbps     00:00:11.344    145 033 bytes   538 227 bytes   00:00:09.300
2               0:07:14.559     0:05:47.805     28 337 kbps     36 727 kbps     00:11:15.466    31 099 kbps     00:08:14.702    29 764 kbps     00:08:22.001    147 737 bytes   546 626 bytes   00:11:36.612
3               0:13:02.364     0:04:38.404     27 852 kbps     38 590 kbps     00:15:20.002    30 269 kbps     00:13:16.712    29 980 kbps     00:13:16.712    145 210 bytes   477 077 bytes   00:15:08.032
4               0:17:40.768     0:04:05.243     28 952 kbps     37 299 kbps     00:19:19.825    30 925 kbps     00:19:19.825    30 095 kbps     00:19:35.424    150 939 bytes   421 458 bytes   00:20:07.956
5               0:21:46.012     0:06:56.874     27 535 kbps     36 581 kbps     00:25:31.821    30 982 kbps     00:25:39.204    30 036 kbps     00:25:34.282    143 554 bytes   475 786 bytes   00:28:07.143
6               0:28:42.886     0:05:49.891     27 919 kbps     37 331 kbps     00:33:43.479    32 337 kbps     00:33:41.102    29 514 kbps     00:33:41.060    145 556 bytes   461 782 bytes   00:33:45.273
7               0:34:32.777     0:04:23.556     28 714 kbps     39 054 kbps     00:35:58.573    30 124 kbps     00:35:55.820    29 424 kbps     00:34:57.178    149 703 bytes   407 891 bytes   00:37:24.659
8               0:38:56.333     0:08:47.235     27 962 kbps     40 489 kbps     00:46:20.944    31 363 kbps     00:46:16.940    29 911 kbps     00:46:01.717    145 793 bytes   548 323 bytes   00:45:40.237
9               0:47:43.568     0:06:02.779     28 350 kbps     47 907 kbps     00:51:36.218    32 080 kbps     00:51:36.218    30 091 kbps     00:49:43.563    147 803 bytes   510 899 bytes   00:52:51.084
10              0:53:46.347     0:04:58.130     28 765 kbps     35 248 kbps     00:57:58.308    30 819 kbps     00:57:58.308    29 819 kbps     00:57:58.308    149 967 bytes   414 728 bytes   00:53:47.140
11              0:58:44.478     0:06:14.082     28 249 kbps     39 886 kbps     00:59:46.749    30 641 kbps     01:00:11.232    29 777 kbps     00:59:56.092    147 279 bytes   454 253 bytes   00:59:46.958
12              1:04:58.561     0:04:10.208     28 970 kbps     35 084 kbps     01:06:34.365    31 027 kbps     01:08:56.924    30 463 kbps     01:08:54.505    151 034 bytes   466 951 bytes   01:05:02.690
13              1:09:08.769     0:02:37.322     28 618 kbps     33 912 kbps     01:11:31.829    30 044 kbps     01:09:19.446    29 689 kbps     01:09:12.690    149 198 bytes   409 811 bytes   01:09:36.213
14              1:11:46.091     0:10:02.186     28 255 kbps     46 230 kbps     01:12:21.420    31 535 kbps     01:17:02.826    30 131 kbps     01:18:06.139    147 308 bytes   525 186 bytes   01:15:23.185
15              1:21:48.278     0:03:34.338     28 805 kbps     35 776 kbps     01:25:11.940    30 788 kbps     01:23:54.028    30 086 kbps     01:23:36.594    150 174 bytes   516 936 bytes   01:24:46.206
16              1:25:22.617     0:04:27.740     21 907 kbps     31 834 kbps     01:29:06.716    26 837 kbps     01:25:22.617    26 008 kbps     01:27:45.510    114 256 bytes   405 989 bytes   01:26:11.875
STREAM DIAGNOSTICS:
File            PID             Type            Codec           Language                Seconds                 Bitrate                 Bytes           Packets
----            ---             ----            -----           --------                --------------          --------------          -------------   -----
00000.M2TS      4113 (0x1011)   0x1B            AVC                                     5390,218                27 938                  18 823 794 852  102 379 459
00000.M2TS      4352 (0x1100)   0x81            AC3             rus (Russian)           5390,218                448                     301 858 816     1 684 480
00000.M2TS      4353 (0x1101)   0x81            AC3             rus (Russian)           5390,218                192                     129 368 064     842 240
00000.M2TS      4354 (0x1102)   0x86            DTS-HD MA       rus (Russian)           5390,218                2 260                   1 522 712 664   9 081 037
00000.M2TS      4355 (0x1103)   0x82            DTS             rus (Russian)           5390,218                762                     513 447 936     3 008 484
00000.M2TS      4356 (0x1104)   0x86            DTS-HD MA       rus (Russian)           5390,218                2 261                   1 523 708 520   9 088 618
00000.M2TS      4357 (0x1105)   0x81            AC3             rus (Russian)           5390,218                192                     129 368 832     842 245
00000.M2TS      4358 (0x1106)   0x86            DTS-HD MA       rus (Russian)           5390,218                2 267                   1 527 578 124   9 108 724
00000.M2TS      4359 (0x1107)   0x81            AC3             ukr (Ukrainian)         5390,218                192                     129 368 064     842 240
00000.M2TS      4360 (0x1108)   0x81            AC3             ukr (Ukrainian)         5390,218                192                     129 368 064     842 240
00000.M2TS      4361 (0x1109)   0x81            AC3             ukr (Ukrainian)         5390,218                192                     129 368 064     842 240
00000.M2TS      4362 (0x110A)   0x86            DTS-HD MA       fre (French)            5390,218                2 251                   1 516 821 808   9 057 675
00000.M2TS      4608 (0x1200)   0x90            PGS             rus (Russian)           5390,218                52                      34 907 175      196 301
00000.M2TS      4609 (0x1201)   0x90            PGS             fre (French)            5390,218                50                      33 557 328      193 144
00000.M2TS      4610 (0x1202)   0x90            PGS             eng (English)           5390,218                38                      25 766 435      147 928
QUICK SUMMARY:
Disc Title: Taxi (1998) BDRemux
Disc Size: 28 471 650 788 bytes
Protection: AACS
BD-Java: No
Playlist: 00000.MPLS
Size: 28 471 560 192 bytes
Length: 1:29:50.357
Total Bitrate: 42,26 Mbps
Video: MPEG-4 AVC Video / 27937 kbps / 1080p / 23,976 fps / 16:9 / High Profile 4.1
Audio: Russian / Dolby Digital Audio / 5.1 / 48 kHz / 448 kbps / DN -4dB
Audio: Russian / Dolby Digital Audio / 2.0 / 48 kHz / 192 kbps / DN -4dB
Audio: Russian / DTS-HD Master Audio / 5.1 / 48 kHz / 2260 kbps / 16-bit (DTS Core: 5.1 / 48 kHz / 1509 kbps / 16-bit)
Audio: Russian / DTS Audio / 5.1 / 48 kHz / 768 kbps / 24-bit
Audio: Russian / DTS-HD Master Audio / 5.1 / 48 kHz / 2261 kbps / 16-bit (DTS Core: 5.1 / 48 kHz / 1509 kbps / 16-bit)
Audio: Russian / Dolby Digital Audio / 2.0 / 48 kHz / 192 kbps / DN -4dB / Dolby Surround
Audio: Russian / DTS-HD Master Audio / 5.1 / 48 kHz / 2267 kbps / 16-bit (DTS Core: 5.1 / 48 kHz / 1509 kbps / 16-bit)
Audio: Ukrainian / Dolby Digital Audio / 1.0 / 48 kHz / 192 kbps
Audio: Ukrainian / Dolby Digital Audio / 1.0 / 48 kHz / 192 kbps
Audio: Ukrainian / Dolby Digital Audio / 1.0 / 48 kHz / 192 kbps
Audio: French / DTS-HD Master Audio / 5.1 / 48 kHz / 2251 kbps / 16-bit (DTS Core: 5.1 / 48 kHz / 1509 kbps / 16-bit)
Subtitle: Russian / 51,807 kbps
Subtitle: French / 49,804 kbps
Subtitle: English / 38,241 kbps
Total   Video
Title                                                           Codec   Length  Movie Size      Disc Size       Bitrate Bitrate Main Audio Track                          Secondary Audio Track
-----                                                           ------  ------- --------------  --------------  ------- ------- ------------------                        ---------------------
00000.MPLS                                                      AVC     1:28:25 17 570 832 384  17 570 908 749  26,50   23,00   DD AC3 5.1 448Kbps                        DD AC3 1.0 192Kbps
DISC INFO:
Disc Title:     Taxi 2 (2000) BDRemux
Disc Size:      17 570 908 749 bytes
Protection:     AACS
BD-Java:        No
BDInfo:         0.5.8
PLAYLIST REPORT:
Name:                   00000.MPLS
Length:                 1:28:25.041 (h:m:s.ms)
Size:                   17 570 832 384 bytes
Total Bitrate:          26,50 Mbps
VIDEO:
Codec                   Bitrate             Description
-----                   -------             -----------
MPEG-4 AVC Video        23001 kbps          1080p / 24 fps / 16:9 / High Profile 4.1
AUDIO:
Codec                           Language        Bitrate         Description
-----                           --------        -------         -----------
Dolby Digital Audio             Russian         448 kbps        5.1 / 48 kHz / 448 kbps / DN -4dB
Dolby Digital Audio             Russian         192 kbps        1.0 / 48 kHz / 192 kbps / DN -4dB
Dolby Digital Audio             Russian         192 kbps        2.0 / 48 kHz / 192 kbps / DN -4dB
Dolby Digital Audio             Russian         192 kbps        1.0 / 48 kHz / 192 kbps / DN -4dB
Dolby Digital Audio             Ukrainian       192 kbps        1.0 / 48 kHz / 192 kbps / DN -4dB
Dolby Digital Audio             Ukrainian       192 kbps        1.0 / 48 kHz / 192 kbps / DN -4dB
Dolby Digital Audio             French          640 kbps        5.1 / 48 kHz / 640 kbps
SUBTITLES:
Codec                           Language        Bitrate         Description
-----                           --------        -------         -----------
Presentation Graphics           Russian         36,366 kbps
FILES:
Name            Time In         Length          Size            Total Bitrate
----            -------         ------          ----            -------------
00000.M2TS      0:00:00.000     1:28:25.041     17 570 832 384  26 497
CHAPTERS:
Number          Time In         Length          Avg Video Rate  Max 1-Sec Rate  Max 1-Sec Time  Max 5-Sec Rate  Max 5-Sec Time  Max 10Sec Rate  Max 10Sec Time  Avg Frame Size  Max Frame Size  Max Frame Time
------          -------         ------          --------------  --------------  --------------  --------------  --------------  --------------  --------------  --------------  --------------  --------------
1               0:00:00.000     0:07:29.750     21 655 kbps     35 520 kbps     00:01:57.458    31 318 kbps     00:01:16.458    28 364 kbps     00:01:54.499    112 765 bytes   435 980 bytes   00:01:19.500
2               0:07:29.750     0:07:13.750     24 501 kbps     38 303 kbps     00:09:32.916    33 475 kbps     00:09:29.166    30 669 kbps     00:09:28.416    127 612 bytes   413 201 bytes   00:08:19.583
3               0:14:43.500     0:08:34.915     24 780 kbps     36 384 kbps     00:19:38.083    31 817 kbps     00:19:36.791    29 138 kbps     00:19:34.708    129 072 bytes   351 982 bytes   00:19:02.999
4               0:23:18.416     0:08:06.917     24 725 kbps     36 302 kbps     00:28:03.041    33 125 kbps     00:28:00.708    31 616 kbps     00:27:56.708    128 774 bytes   366 815 bytes   00:23:27.041
5               0:31:25.333     0:08:15.666     25 159 kbps     29 923 kbps     00:38:14.124    27 660 kbps     00:37:37.583    27 329 kbps     00:37:37.583    131 024 bytes   319 133 bytes   00:38:14.833
6               0:39:41.000     0:07:11.791     25 034 kbps     29 658 kbps     00:39:48.624    27 408 kbps     00:44:20.749    26 931 kbps     00:42:45.708    130 398 bytes   293 281 bytes   00:42:04.374
7               0:46:52.791     0:07:24.291     25 438 kbps     30 239 kbps     00:48:57.833    28 565 kbps     00:49:32.208    27 675 kbps     00:49:27.166    132 491 bytes   314 836 bytes   00:51:23.083
8               0:54:17.083     0:06:57.041     23 037 kbps     38 622 kbps     00:57:25.874    28 743 kbps     00:57:18.874    27 503 kbps     00:54:35.208    119 974 bytes   378 338 bytes   00:54:26.416
9               1:01:14.125     0:06:56.207     23 617 kbps     34 273 kbps     01:05:26.874    30 468 kbps     01:05:36.208    28 302 kbps     01:05:36.583    123 017 bytes   416 378 bytes   01:05:39.708
10              1:08:10.333     0:07:35.749     23 888 kbps     37 038 kbps     01:13:32.458    31 648 kbps     01:13:31.083    29 136 kbps     01:13:28.416    124 417 bytes   332 001 bytes   01:08:50.499
11              1:15:46.082     0:07:48.042     22 366 kbps     29 923 kbps     01:16:26.208    28 854 kbps     01:18:44.749    28 174 kbps     01:18:39.708    116 491 bytes   355 313 bytes   01:21:49.541
12              1:23:34.125     0:04:50.916     5 089 kbps      14 509 kbps     01:28:10.083    12 596 kbps     01:28:08.083    11 026 kbps     01:28:05.083    26 511 bytes    246 354 bytes   01:28:10.124
STREAM DIAGNOSTICS:
File            PID             Type            Codec           Language                Seconds                 Bitrate                 Bytes           Packets
----            ---             ----            -----           --------                --------------          --------------          -------------   -----
00000.M2TS      4113 (0x1011)   0x1B            AVC                                     5305,000                23 001                  15 252 481 065  82 968 523
00000.M2TS      4352 (0x1100)   0x81            AC3             rus (Russian)           5305,000                448                     296 758 784     1 656 020
00000.M2TS      4353 (0x1101)   0x81            AC3             rus (Russian)           5305,000                192                     127 182 336     828 010
00000.M2TS      4354 (0x1102)   0x81            AC3             rus (Russian)           5305,000                192                     127 182 336     828 010
00000.M2TS      4355 (0x1103)   0x81            AC3             rus (Russian)           5305,000                192                     127 182 336     828 010
00000.M2TS      4356 (0x1104)   0x81            AC3             ukr (Ukrainian)         5305,000                192                     127 182 336     828 010
00000.M2TS      4357 (0x1105)   0x81            AC3             ukr (Ukrainian)         5305,000                192                     127 182 336     828 010
00000.M2TS      4358 (0x1106)   0x81            AC3             fra (French)            5305,000                639                     423 941 120     2 484 030
00000.M2TS      4608 (0x1200)   0x90            PGS             rus (Russian)           5305,000                36                      24 115 676      137 202
QUICK SUMMARY:
Disc Title: Taxi 2 (2000) BDRemux
Disc Size: 17 570 908 749 bytes
Protection: AACS
BD-Java: No
Playlist: 00000.MPLS
Size: 17 570 832 384 bytes
Length: 1:28:25.041
Total Bitrate: 26,50 Mbps
Video: MPEG-4 AVC Video / 23001 kbps / 1080p / 24 fps / 16:9 / High Profile 4.1
Audio: Russian / Dolby Digital Audio / 5.1 / 48 kHz / 448 kbps / DN -4dB
Audio: Russian / Dolby Digital Audio / 1.0 / 48 kHz / 192 kbps / DN -4dB
Audio: Russian / Dolby Digital Audio / 2.0 / 48 kHz / 192 kbps / DN -4dB
Audio: Russian / Dolby Digital Audio / 1.0 / 48 kHz / 192 kbps / DN -4dB
Audio: Ukrainian / Dolby Digital Audio / 1.0 / 48 kHz / 192 kbps / DN -4dB
Audio: Ukrainian / Dolby Digital Audio / 1.0 / 48 kHz / 192 kbps / DN -4dB
Audio: French / Dolby Digital Audio / 5.1 / 48 kHz / 640 kbps
Subtitle: Russian / 36,366 kbps
Total   Video
Title                                                           Codec   Length  Movie Size      Disc Size       Bitrate Bitrate Main Audio Track                          Secondary Audio Track
-----                                                           ------  ------- --------------  --------------  ------- ------- ------------------                        ---------------------
00000.MPLS                                                      AVC     1:27:21 22 068 547 584  22 068 615 247  33,68   26,20   DD AC3 5.1 320Kbps                        DD AC3 1.0 192Kbps
DISC INFO:
Disc Title:     Taxi 3 (2003) BDRemux
Disc Size:      22 068 615 247 bytes
Protection:     AACS
BD-Java:        No
BDInfo:         0.5.8
PLAYLIST REPORT:
Name:                   00000.MPLS
Length:                 1:27:21.184 (h:m:s.ms)
Size:                   22 068 547 584 bytes
Total Bitrate:          33,68 Mbps
VIDEO:
Codec                   Bitrate             Description
-----                   -------             -----------
MPEG-4 AVC Video        26201 kbps          1080p / 23,976 fps / 16:9 / High Profile 4.1
AUDIO:
Codec                           Language        Bitrate         Description
-----                           --------        -------         -----------
Dolby Digital Audio             Russian         320 kbps        5.1 / 48 kHz / 320 kbps / DN -4dB
Dolby Digital Audio             Russian         192 kbps        1.0 / 48 kHz / 192 kbps / DN -4dB
Dolby Digital Audio             Russian         192 kbps        1.0 / 48 kHz / 192 kbps / DN -4dB
Dolby Digital Audio             Russian         192 kbps        1.0 / 48 kHz / 192 kbps / DN -4dB
Dolby Digital Audio             Russian         192 kbps        1.0 / 48 kHz / 192 kbps / DN -4dB
Dolby Digital Audio             Ukrainian       192 kbps        1.0 / 48 kHz / 192 kbps / DN -4dB
Dolby TrueHD Audio              French          2850 kbps       5.1 / 48 kHz / 2850 kbps / 16-bit (AC3 Embedded: 5.1-EX / 48 kHz / 640 kbps / DN -4dB)
SUBTITLES:
Codec                           Language        Bitrate         Description
-----                           --------        -------         -----------
Presentation Graphics           Russian         28,896 kbps
Presentation Graphics           French          29,575 kbps
Presentation Graphics           English         29,407 kbps
FILES:
Name            Time In         Length          Size            Total Bitrate
----            -------         ------          ----            -------------
00000.M2TS      0:00:00.000     1:27:21.184     22 068 547 584  33 687
CHAPTERS:
Number          Time In         Length          Avg Video Rate  Max 1-Sec Rate  Max 1-Sec Time  Max 5-Sec Rate  Max 5-Sec Time  Max 10Sec Rate  Max 10Sec Time  Avg Frame Size  Max Frame Size  Max Frame Time
------          -------         ------          --------------  --------------  --------------  --------------  --------------  --------------  --------------  --------------  --------------  --------------
1               0:00:00.000     0:06:59.961     27 005 kbps     51 107 kbps     00:00:16.433    36 373 kbps     00:00:16.433    34 206 kbps     00:00:16.349    140 778 bytes   685 685 bytes   00:00:42.459
2               0:06:59.961     0:07:00.002     27 009 kbps     41 521 kbps     00:07:35.454    31 285 kbps     00:07:35.455    28 912 kbps     00:09:02.917    140 812 bytes   494 081 bytes   00:09:10.883
3               0:13:59.963     0:07:00.003     27 002 kbps     31 411 kbps     00:15:54.620    28 130 kbps     00:20:53.502    27 609 kbps     00:15:54.495    140 773 bytes   445 548 bytes   00:20:18.300
4               0:20:59.967     0:06:59.960     26 994 kbps     31 361 kbps     00:21:01.718    28 089 kbps     00:25:26.399    27 528 kbps     00:25:26.274    140 736 bytes   431 654 bytes   00:21:01.760
5               0:27:59.927     0:07:00.003     27 000 kbps     32 009 kbps     00:33:24.419    28 398 kbps     00:33:23.209    27 773 kbps     00:33:18.246    140 767 bytes   454 647 bytes   00:29:12.250
6               0:34:59.931     0:13:59.963     27 000 kbps     36 290 kbps     00:38:33.310    29 581 kbps     00:38:02.071    28 060 kbps     00:38:02.196    140 767 bytes   505 952 bytes   00:38:25.261
7               0:48:59.895     0:07:00.003     27 000 kbps     33 630 kbps     00:52:13.797    28 862 kbps     00:52:13.505    27 917 kbps     00:52:13.505    140 766 bytes   612 455 bytes   00:53:35.378
8               0:55:59.898     0:07:00.043     26 993 kbps     32 699 kbps     00:56:02.817    28 630 kbps     00:56:01.649    27 725 kbps     01:00:57.445    140 730 bytes   405 620 bytes   00:57:24.691
9               1:02:59.942     0:07:00.002     27 010 kbps     32 627 kbps     01:09:40.217    28 567 kbps     01:09:39.133    27 990 kbps     01:09:35.838    140 818 bytes   423 750 bytes   01:06:30.152
10              1:09:59.945     0:13:59.963     24 434 kbps     36 206 kbps     01:14:07.943    29 291 kbps     01:12:18.208    28 169 kbps     01:12:18.208    127 387 bytes   547 119 bytes   01:11:58.272
11              1:23:59.908     0:-07:00.-002   0 kbps          0 kbps          00:00:00.000    0 kbps          00:00:00.000    0 kbps          00:00:00.000    0 bytes         0 bytes         00:00:00.000
12              1:16:59.906     0:10:21.278     5 450 kbps      32 353 kbps     01:25:07.393    29 661 kbps     01:25:06.601    27 174 kbps     01:26:44.741    87 873 bytes    408 349 bytes   01:25:08.144
STREAM DIAGNOSTICS:
File            PID             Type            Codec           Language                Seconds                 Bitrate                 Bytes           Packets
----            ---             ----            -----           --------                --------------          --------------          -------------   -----
00000.M2TS      4113 (0x1011)   0x1B            AVC                                     5240,777                26 201                  17 164 274 410  93 357 434
00000.M2TS      4352 (0x1100)   0x81            AC3             rus (Russian)           5240,777                320                     209 648 640     1 310 304
00000.M2TS      4353 (0x1101)   0x81            AC3             rus (Russian)           5240,777                192                     125 787 648     818 938
00000.M2TS      4354 (0x1102)   0x81            AC3             rus (Russian)           5240,777                192                     125 789 184     818 940
00000.M2TS      4355 (0x1103)   0x81            AC3             rus (Russian)           5240,777                192                     125 789 184     818 940
00000.M2TS      4356 (0x1104)   0x81            AC3             rus (Russian)           5240,777                192                     125 789 184     818 940
00000.M2TS      4357 (0x1105)   0x81            AC3             ukr (Ukrainian)         5240,777                192                     125 789 184     818 940
00000.M2TS      4358 (0x1106)   0x83            TrueHD          fra (French)            5240,777                3 490                   2 286 101 592   15 716 248
00000.M2TS      4608 (0x1200)   0x90            PGS             rus (Russian)           5240,777                29                      18 929 724      112 041
00000.M2TS      4609 (0x1201)   0x90            PGS             fre (French)            5240,777                30                      19 374 979      110 435
00000.M2TS      4610 (0x1202)   0x90            PGS             eng (English)           5240,777                29                      19 264 906      111 784
QUICK SUMMARY:
Disc Title: Taxi 3 (2003) BDRemux
Disc Size: 22 068 615 247 bytes
Protection: AACS
BD-Java: No
Playlist: 00000.MPLS
Size: 22 068 547 584 bytes
Length: 1:27:21.184
Total Bitrate: 33,68 Mbps
Video: MPEG-4 AVC Video / 26201 kbps / 1080p / 23,976 fps / 16:9 / High Profile 4.1
Audio: Russian / Dolby Digital Audio / 5.1 / 48 kHz / 320 kbps / DN -4dB
Audio: Russian / Dolby Digital Audio / 1.0 / 48 kHz / 192 kbps / DN -4dB
Audio: Russian / Dolby Digital Audio / 1.0 / 48 kHz / 192 kbps / DN -4dB
Audio: Russian / Dolby Digital Audio / 1.0 / 48 kHz / 192 kbps / DN -4dB
Audio: Russian / Dolby Digital Audio / 1.0 / 48 kHz / 192 kbps / DN -4dB
Audio: Ukrainian / Dolby Digital Audio / 1.0 / 48 kHz / 192 kbps / DN -4dB
Audio: French / Dolby TrueHD Audio / 5.1 / 48 kHz / 2850 kbps / 16-bit (AC3 Embedded: 5.1-EX / 48 kHz / 640 kbps / DN -4dB)
Subtitle: Russian / 28,896 kbps
Subtitle: French / 29,575 kbps
Subtitle: English / 29,407 kbps
Total   Video
Title                                                           Codec   Length  Movie Size      Disc Size       Bitrate Bitrate Main Audio Track                          Secondary Audio Track
-----                                                           ------  ------- --------------  --------------  ------- ------- ------------------                        ---------------------
00000.MPLS                                                      AVC     1:30:53 20 611 657 728  20 611 740 836  30,24   22,74   DD AC3 5.1 384Kbps                        DD AC3 1.0 192Kbps
DISC INFO:
Disc Title:     Taxi 4 (2007) BDRemux
Disc Size:      20 611 740 836 bytes
Protection:     AACS
BD-Java:        No
BDInfo:         0.5.8
PLAYLIST REPORT:
Name:                   00000.MPLS
Length:                 1:30:53.408 (h:m:s.ms)
Size:                   20 611 657 728 bytes
Total Bitrate:          30,24 Mbps
VIDEO:
Codec                   Bitrate             Description
-----                   -------             -----------
MPEG-4 AVC Video        22743 kbps          1080p / 23,976 fps / 16:9 / High Profile 4.1
AUDIO:
Codec                           Language        Bitrate         Description
-----                           --------        -------         -----------
Dolby Digital Audio             Russian         384 kbps        5.1 / 48 kHz / 384 kbps / DN -4dB
Dolby Digital Audio             Russian         192 kbps        1.0 / 48 kHz / 192 kbps / DN -4dB
Dolby Digital Audio             Russian         192 kbps        1.0 / 48 kHz / 192 kbps / DN -4dB
Dolby Digital Audio             Russian         192 kbps        1.0 / 48 kHz / 192 kbps / DN -4dB
Dolby Digital Audio             Ukrainian       192 kbps        1.0 / 48 kHz / 192 kbps / DN -4dB
Dolby Digital Audio             Ukrainian       192 kbps        1.0 / 48 kHz / 192 kbps / DN -4dB
Dolby Digital Audio             Ukrainian       192 kbps        1.0 / 48 kHz / 192 kbps / DN -4dB
Dolby TrueHD Audio              French          2359 kbps       5.1 / 48 kHz / 2359 kbps / 16-bit (AC3 Embedded: 5.1 / 48 kHz / 640 kbps)
SUBTITLES:
Codec                           Language        Bitrate         Description
-----                           --------        -------         -----------
Presentation Graphics           Russian         38,487 kbps
Presentation Graphics           English         40,684 kbps
FILES:
Name            Time In         Length          Size            Total Bitrate
----            -------         ------          ----            -------------
00000.M2TS      0:00:00.000     1:30:53.408     20 611 657 728  30 237
CHAPTERS:
Number          Time In         Length          Avg Video Rate  Max 1-Sec Rate  Max 1-Sec Time  Max 5-Sec Rate  Max 5-Sec Time  Max 10Sec Rate  Max 10Sec Time  Avg Frame Size  Max Frame Size  Max Frame Time
------          -------         ------          --------------  --------------  --------------  --------------  --------------  --------------  --------------  --------------  --------------  --------------
1               0:00:00.000     0:10:19.993     21 553 kbps     48 383 kbps     00:00:18.059    38 961 kbps     00:09:10.383    36 242 kbps     00:09:10.258    112 359 bytes   683 470 bytes   00:09:03.542
2               0:10:19.993     0:10:46.980     21 222 kbps     40 741 kbps     00:10:57.740    36 838 kbps     00:10:54.904    33 121 kbps     00:10:54.904    110 643 bytes   843 945 bytes   00:11:41.534
3               0:21:06.974     0:10:25.040     23 115 kbps     45 839 kbps     00:28:33.002    36 754 kbps     00:28:58.361    32 458 kbps     00:28:58.236    120 510 bytes   610 313 bytes   00:21:07.182
4               0:31:32.015     0:08:51.989     25 526 kbps     49 332 kbps     00:38:22.341    36 261 kbps     00:39:08.596    33 406 kbps     00:39:09.305    133 079 bytes   626 896 bytes   00:39:15.770
5               0:40:24.004     0:07:05.925     24 062 kbps     53 119 kbps     00:44:38.050    41 950 kbps     00:44:35.756    39 140 kbps     00:44:31.335    125 451 bytes   641 529 bytes   00:44:46.642
6               0:47:29.930     0:04:25.056     26 998 kbps     48 669 kbps     00:49:07.527    42 032 kbps     00:49:07.235    40 025 kbps     00:49:05.484    140 752 bytes   612 044 bytes   00:49:04.524
7               0:51:54.986     0:05:48.974     24 399 kbps     44 169 kbps     00:53:02.262    38 709 kbps     00:53:00.802    37 320 kbps     00:52:26.977    127 207 bytes   585 003 bytes   00:54:00.236
8               0:57:43.960     0:06:27.970     21 422 kbps     35 807 kbps     01:02:34.834    29 754 kbps     01:02:31.497    27 898 kbps     01:02:02.802    111 683 bytes   545 276 bytes   00:58:51.486
9               1:04:11.930     0:04:47.954     21 336 kbps     37 564 kbps     01:07:34.175    29 120 kbps     01:04:55.433    26 279 kbps     01:04:54.348    111 238 bytes   584 679 bytes   01:07:42.975
10              1:08:59.885     0:08:41.061     23 303 kbps     51 123 kbps     01:16:55.068    42 421 kbps     01:10:32.645    38 785 kbps     01:10:28.349    121 490 bytes   621 084 bytes   01:14:52.196
11              1:17:40.947     0:04:57.005     32 842 kbps     46 796 kbps     01:20:14.059    39 701 kbps     01:19:13.248    37 941 kbps     01:19:11.913    171 222 bytes   607 263 bytes   01:21:03.066
12              1:22:37.952     0:08:15.456     13 390 kbps     57 956 kbps     01:25:28.248    42 337 kbps     01:25:11.022    38 194 kbps     01:25:04.933    69 817 bytes    811 805 bytes   01:25:11.648
STREAM DIAGNOSTICS:
File            PID             Type            Codec           Language                Seconds                 Bitrate                 Bytes           Packets
----            ---             ----            -----           --------                --------------          --------------          -------------   -----
00000.M2TS      4113 (0x1011)   0x1B            AVC                                     5453,239                22 743                  15 503 145 547  84 332 284
00000.M2TS      4352 (0x1100)   0x81            AC3             rus (Russian)           5453,239                384                     261 765 120     1 533 780
00000.M2TS      4353 (0x1101)   0x81            AC3             rus (Russian)           5453,239                192                     130 882 560     852 100
00000.M2TS      4354 (0x1102)   0x81            AC3             rus (Russian)           5453,239                192                     130 882 560     852 100
00000.M2TS      4355 (0x1103)   0x81            AC3             rus (Russian)           5453,239                192                     130 882 560     852 100
00000.M2TS      4356 (0x1104)   0x81            AC3             ukr (Ukrainian)         5453,239                192                     130 882 560     852 100
00000.M2TS      4357 (0x1105)   0x81            AC3             ukr (Ukrainian)         5453,239                192                     130 882 560     852 100
00000.M2TS      4358 (0x1106)   0x81            AC3             ukr (Ukrainian)         5453,239                192                     130 882 560     852 100
00000.M2TS      4359 (0x1107)   0x83            TrueHD          fra (French)            5453,239                2 999                   2 044 402 594   15 927 287
00000.M2TS      4608 (0x1200)   0x90            PGS             rus (Russian)           5453,239                38                      26 235 778      151 684
00000.M2TS      4609 (0x1201)   0x90            PGS             eng (English)           5453,239                41                      27 733 134      162 186
QUICK SUMMARY:
Disc Title: Taxi 4 (2007) BDRemux
Disc Size: 20 611 740 836 bytes
Protection: AACS
BD-Java: No
Playlist: 00000.MPLS
Size: 20 611 657 728 bytes
Length: 1:30:53.408
Total Bitrate: 30,24 Mbps
Video: MPEG-4 AVC Video / 22743 kbps / 1080p / 23,976 fps / 16:9 / High Profile 4.1
Audio: Russian / Dolby Digital Audio / 5.1 / 48 kHz / 384 kbps / DN -4dB
Audio: Russian / Dolby Digital Audio / 1.0 / 48 kHz / 192 kbps / DN -4dB
Audio: Russian / Dolby Digital Audio / 1.0 / 48 kHz / 192 kbps / DN -4dB
Audio: Russian / Dolby Digital Audio / 1.0 / 48 kHz / 192 kbps / DN -4dB
Audio: Ukrainian / Dolby Digital Audio / 1.0 / 48 kHz / 192 kbps / DN -4dB
Audio: Ukrainian / Dolby Digital Audio / 1.0 / 48 kHz / 192 kbps / DN -4dB
Audio: Ukrainian / Dolby Digital Audio / 1.0 / 48 kHz / 192 kbps / DN -4dB
Audio: French / Dolby TrueHD Audio / 5.1 / 48 kHz / 2359 kbps / 16-bit (AC3 Embedded: 5.1 / 48 kHz / 640 kbps)
Subtitle: Russian / 38,487 kbps
Subtitle: English / 40,684 kbps Цитата:
  • Дороги 1,3,4 взяты с DVD изданий
Скриншоты:

[Цитировать]

Спасибо !!!!!

[Цитировать]



Показать сообщения:    

Текущее время: 09-Дек 12:38

Часовой пояс: UTC + 3


Вы не можете начинать темы
Вы не можете отвечать на сообщения
Вы не можете редактировать свои сообщения
Вы не можете удалять свои сообщения
Вы не можете голосовать в опросах
Вы не можете прикреплять файлы к сообщениям
Вы не можете скачивать файлы

!ВНИМАНИЕ!
Сайт не предоставляет электронные версии произведений, а занимается лишь коллекционированием и каталогизацией ссылок, присылаемых и публикуемых на форуме нашими читателями. Если вы являетесь правообладателем какого-либо представленного материала и не желаете, чтобы ссылка на него находилась в нашем каталоге, свяжитесь с нами, и мы незамедлительно удалим ее. Файлы для обмена на трекере предоставлены пользователями сайта, и администрация не несет ответственности за их содержание. Просьба не заливать файлы, защищенные авторскими правами, а также файлы нелегального содержания!