[ Сегодня идет свободное скачивание без начисления Download ]


Статистика раздачи
Нет
 
   
 
Top  
 
 
-Несносный дед / Jackass Presents: Bad Grandpa (2013) BDRip [720p] [VO]- Год выпуска: 2013
Производство: США / Dickhouse Productions, MTV Films
Жанр: документальный, комедия
Перевод: Любительский (одноголосый) | Magnum
Субтитры: Нет-Дата мировой премьеры: 23 октября 2013
Дата российской премьеры: 23 января 2014, «Централ Партнершип»
Дата выхода DVD/Blu-Ray: -/--Режиссер: Джефф Треймейн
Актеры: Джонни Ноксвил, Джексон Николл, Грег Харрис, Джорджина Кэйтс, Камбер Хейлик, Джилл Килл, Мэдисон Дэвис, Джордж Фонан, Грэси Мерседес, Мэрилинн Эллейн-Описание фильма:
86-летний старикан по имени Ирвинг Зисман (Джонни Ноксвил) путешествует по Америке с необычным компаньоном — восьмилетним «внуком» Билли.
По дороге заводной дедушка знакомит впечатлительного Билли с людьми, местами и ситуациями, которые вряд ли укладываются в рамки привычных представлений о воспитании. Парочка столкнется со стриптизершами, разъяренными участниками помпезного детского конкурса красоты и их не менее злыми мамашами, скорбящими посетителями панихиды, завсегдатаями бара для байкеров и другими ничего не подозревающими гражданами США.- -Продолжительность: 01:31:54
Качество видео: BDRip [720p] [profile-LQ]-Видео: MPEG-4 AVC, 1280x720 (16:9), 23.976 fps, 4 200 Kbps (0.190 bit/pixel)
Аудио #1: AC-3, 48.0 KHz, 6 ch, 448 Kbps, CBR [Русский | Magnum]
Аудио #2: DTS, 48.0 KHz, 6 ch, 1 510 Kbps, CBR [Английский | Original]
Дополнительно: Сохранены оригинальные главы с Blu-Ray.

MediaInfo:

General
Unique ID                                : 233728326006395176769473329723549578666 (0xAFD6702D4463B5FEA6CCBAF56E3275AA)
Complete name                            : F:\Jackass.Presents.Bad.Grandpa.2013.L1.BDRip.720p.mkv
Format                                   : Matroska
Format version                           : Version 4 / Version 2
File size                                : 3.95 GiB
Duration                                 : 1h 31mn
Overall bit rate                         : 6 160 Kbps
Movie name                               : CMEGroup
Encoded date                             : UTC 2014-01-15 04:58:39
Writing application                      : mkvmerge v6.7.0 ('Back to the Ground') 32bit built on Jan  8 2014 15:03:17
Writing library                          : libebml v1.3.0 + libmatroska v1.4.1
Video
ID                                       : 1
Format                                   : AVC
Format/Info                              : Advanced Video Codec
Format profile                           : [url=mailto:[email protected]][email protected][/url]
Format settings, CABAC                   : Yes
Format settings, ReFrames                : 4 frames
Codec ID                                 : V_MPEG4/ISO/AVC
Duration                                 : 1h 31mn
Bit rate                                 : 4 200 Kbps
Width                                    : 1 280 pixels
Height                                   : 720 pixels
Display aspect ratio                     : 16:9
Frame rate mode                          : Constant
Frame rate                               : 23.976 fps
Color space                              : YUV
Chroma subsampling                       : 4:2:0
Bit depth                                : 8 bits
Scan type                                : Progressive
Bits/(Pixel*Frame)                       : 0.190
Stream size                              : 2.62 GiB (66%)
Writing library                          : x264 core 138 r2358 9e941d1
Encoding settings                        : cabac=1 / ref=4 / deblock=1:-3:-3 / analyse=0x3:0x113 / me=umh / subme=7 / psy=1 / psy_rd=1.00:0.00 / mixed_ref=1 / me_range=16 / chroma_me=1 / trellis=1 / 8x8dct=1 / cqm=0 / deadzone=21,11 / fast_pskip=1 / chroma_qp_offset=-2 / threads=12 / lookahead_threads=2 / sliced_threads=0 / nr=0 / decimate=1 / interlaced=0 / bluray_compat=0 / constrained_intra=0 / bframes=5 / b_pyramid=2 / b_adapt=1 / b_bias=0 / direct=1 / weightb=1 / open_gop=0 / weightp=2 / keyint=240 / keyint_min=23 / scenecut=40 / intra_refresh=0 / rc_lookahead=40 / rc=2pass / mbtree=1 / bitrate=4200 / ratetol=1.0 / qcomp=0.60 / qpmin=10 / qpmax=51 / qpstep=4 / cplxblur=20.0 / qblur=0.5 / vbv_maxrate=62500 / vbv_bufsize=78125 / nal_hrd=none / ip_ratio=1.40 / aq=1:1.00
Language                                 : English
Default                                  : Yes
Forced                                   : No
Audio #1
ID                                       : 2
Format                                   : AC-3
Format/Info                              : Audio Coding 3
Mode extension                           : CM (complete main)
Format settings, Endianness              : Big
Codec ID                                 : A_AC3
Duration                                 : 1h 31mn
Bit rate mode                            : Constant
Bit rate                                 : 448 Kbps
Channel(s)                               : 6 channels
Channel positions                        : Front: L C R, Side: L R, LFE
Sampling rate                            : 48.0 KHz
Bit depth                                : 16 bits
Compression mode                         : Lossy
Stream size                              : 294 MiB (7%)
Language                                 : Russian
Default                                  : Yes
Forced                                   : Yes
Audio #2
ID                                       : 3
Format                                   : DTS
Format/Info                              : Digital Theater Systems
Mode                                     : 16
Format settings, Endianness              : Big
Codec ID                                 : A_DTS
Duration                                 : 1h 31mn
Bit rate mode                            : Constant
Bit rate                                 : 1 509 Kbps
Channel(s)                               : 6 channels
Channel positions                        : Front: L C R, Side: L R, LFE
Sampling rate                            : 48.0 KHz
Bit depth                                : 24 bits
Compression mode                         : Lossy
Stream size                              : 992 MiB (24%)
Language                                 : English
Default                                  : No
Forced                                   : No
Menu #1
00:00:00.000                             : en:00:00:00.000
00:03:48.228                             : en:00:03:48.228
00:05:17.317                             : en:00:05:17.317
00:10:56.155                             : en:00:10:56.155
00:15:01.359                             : en:00:15:01.359
00:19:34.965                             : en:00:19:34.965
00:25:41.498                             : en:00:25:41.498
00:34:43.957                             : en:00:34:43.957
00:39:51.931                             : en:00:39:51.931
00:41:25.274                             : en:00:41:25.274
00:47:09.076                             : en:00:47:09.076
00:55:25.697                             : en:00:55:25.697
01:03:46.239                             : en:01:03:46.239
01:07:02.060                             : en:01:07:02.060
01:12:45.486                             : en:01:12:45.486
01:19:27.429                             : en:01:19:27.429
01:24:26.937                             : en:01:24:26.937
Menu #2
00:00:00.000                             : :Chapter 01
00:06:47.824                             : :Chapter 02
00:14:50.014                             : :Chapter 03
00:20:26.391                             : :Chapter 04
00:26:02.769                             : :Chapter 05
00:34:37.033                             : :Chapter 06
00:41:33.866                             : :Chapter 07
00:49:09.571                             : :Chapter 08
00:55:55.602                             : :Chapter 09
01:02:14.063                             : :Chapter 10
01:08:58.592                             : :Chapter 11
01:16:21.785                             : :Chapter 12
01:23:13.154                             : :Chapter 13
Скриншоты:-

[Цитировать]



Показать сообщения:    

Текущее время: 05-Дек 19:34

Часовой пояс: UTC + 3


Вы не можете начинать темы
Вы не можете отвечать на сообщения
Вы не можете редактировать свои сообщения
Вы не можете удалять свои сообщения
Вы не можете голосовать в опросах
Вы не можете прикреплять файлы к сообщениям
Вы не можете скачивать файлы

!ВНИМАНИЕ!
Сайт не предоставляет электронные версии произведений, а занимается лишь коллекционированием и каталогизацией ссылок, присылаемых и публикуемых на форуме нашими читателями. Если вы являетесь правообладателем какого-либо представленного материала и не желаете, чтобы ссылка на него находилась в нашем каталоге, свяжитесь с нами, и мы незамедлительно удалим ее. Файлы для обмена на трекере предоставлены пользователями сайта, и администрация не несет ответственности за их содержание. Просьба не заливать файлы, защищенные авторскими правами, а также файлы нелегального содержания!