[ Сегодня идет свободное скачивание без начисления Download ]


Статистика раздачи
Нет
 
   
 
Top  
 
 
-Гонка / Rush (2013) BDRip [720p]
«Делай что должен, и будь что будет»
- Год выпуска: 2013
Производство: США, Германия, Великобритания
Жанр: Спорт, драма, биография
Перевод: Дублированный [чистый звук]
Субтитры: Отсутствуют
Описание фильма:
Спортивная драма. 70-е годы XX века. Золотое время «Формулы-1»: обтекаемые формы гоночных машин, брутальные на треке и ранимые в обычной жизни гонщики, сексуальные поклонницы, литры шампанского на финише для победителя. Два непримиримых соперника в истории гонок — обаятельный плейбой-англичанин Джеймс Хант и дисциплинированный перфекционист-австриец Ники Лауда — доводят себя до предела физической и психологической выносливости ради триумфа на трассе. Для них нет легких путей к победе и права на ошибку. Единственный промах может стоить гонщикам карьеры и даже жизни. Фильм «Гонка» основан на реальных событиях Формулы-1 в сезоне 1976 года.
Режиссер: Рон Ховард
Актеры: Крис Хемсворт, Даниэль Брюль, Оливия Уайлд, Александра Мария Лара, Пьерфранческо Фавино, Дэвид Колдер, Натали Дормер, Стефен Мэнгэн, Кристиан МакКэй, Алистэр Петри-
Дата мировой премьеры: 2 сентября 2013
Дата российской премьеры: 17 октября 2013, «Двадцатый Век Фокс СНГ»-Продолжительность: 02:02:42
Качество видео: BDRip
Видео: MPEG-4 AVC/H.264, 1280x534, ~5074 Кбит/сек
Аудио 1: AC3 2.0, 128 Кбит/сек [Русский - дублированный]
Аудио 2: DTS 5.1, 768 Кбит/сек [Английский - оригинал]

MediaInfo:

Общее
Уникальный идентификатор : 244482767068897869300188210257812314887 (0xB7EDAB0F0DF61F3597019528D74CDB07)
Полное имя : D:\ФИЛЬМЫ\Rush (2013) BDRip [720p].mkv
Формат : Matroska
Версия формата : Version 2
Размер файла : 5,12 Гбайт
Продолжительность : 2 ч. 2 м.
Общий поток : 5970 Кбит/сек
Название фильма : Rush.2013.BluRay.720p.DTS.x264-CHD
Дата кодирования : UTC 2014-01-10 09:44:05
Программа кодирования : mkvmerge v6.6.0 ('The Edge Of The In Between') built on Dec 1 2013 17:55:00
Библиотека кодирования : libebml v1.3.0 + libmatroska v1.4.1
Видео
Идентификатор : 1
Формат : AVC
Формат/Информация : Advanced Video Codec
Профиль формата : High@L4.1
Параметр CABAC формата : Да
Параметр ReFrames формата : 11 кадров
Идентификатор кодека : V_MPEG4/ISO/AVC
Продолжительность : 2 ч. 2 м.
Битрейт : 5074 Кбит/сек
Ширина : 1280 пикселей
Высота : 534 пикселя
Соотношение сторон : 2,40:1
Режим частоты кадров : Постоянный
Частота кадров : 23,976 кадра/сек
Цветовое пространство : YUV
Субдискретизация насыщенности : 4:2:0
Битовая глубина : 8 бит
Тип развёртки : Прогрессивная
Бит/(Пиксели*Кадры) : 0.310
Размер потока : 4,25 Гбайт (83%)
Заголовок : hahay0yo@CHD
Библиотека кодирования : x264 core 138 r2356 a1d3d17
Настройки программы : cabac=1 / ref=11 / deblock=1:-3:-3 / analyse=0x3:0x113 / me=umh / subme=10 / psy=1 / psy_rd=1.00:0.05 / mixed_ref=1 / me_range=32 / chroma_me=1 / trellis=2 / 8x8dct=1 / cqm=0 / deadzone=21,11 / fast_pskip=0 / chroma_qp_offset=-2 / threads=18 / lookahead_threads=1 / sliced_threads=0 / nr=0 / decimate=1 / interlaced=0 / bluray_compat=0 / constrained_intra=0 / bframes=4 / b_pyramid=2 / b_adapt=2 / b_bias=0 / direct=3 / weightb=1 / open_gop=0 / weightp=2 / keyint=250 / keyint_min=23 / scenecut=40 / intra_refresh=0 / rc=2pass / mbtree=0 / bitrate=5074 / ratetol=1.0 / qcomp=0.70 / qpmin=0 / qpmax=69 / qpstep=4 / cplxblur=20.0 / qblur=0.5 / ip_ratio=1.40 / pb_ratio=1.30 / aq=2:0.80
Язык : English
Default : Да
Forced : Нет
Аудио #1
Идентификатор : 2
Формат : AC-3
Формат/Информация : Audio Coding 3
Расширение режима : CM (complete main)
Параметр Endianness формата : Big
Идентификатор кодека : A_AC3
Продолжительность : 2 ч. 2 м.
Вид битрейта : Постоянный
Битрейт : 128 Кбит/сек
Каналы : 2 канала
Расположение каналов : Front: L R
Частота : 48,0 КГц
Битовая глубина : 16 бит
Метод сжатия : С потерями
Размер потока : 112 Мбайт (2%)
Язык : Russian
Default : Да
Forced : Нет
Аудио #2
Идентификатор : 3
Формат : DTS
Формат/Информация : Digital Theater Systems
Режим : 16
Параметр Endianness формата : Big
Идентификатор кодека : A_DTS
Продолжительность : 2 ч. 2 м.
Вид битрейта : Постоянный
Битрейт : 768 Кбит/сек
Каналы : 6 каналов
Расположение каналов : Front: L C R, Side: L R, LFE
Частота : 48,0 КГц
Битовая глубина : 24 бит
Метод сжатия : С потерями
Размер потока : 674 Мбайт (13%)
Заголовок : English DTS 5.1 768Kbps
Язык : English
Default : Нет
Forced : Нет
Меню
00:00:00.000 : en:00:00:00.000
00:12:17.028 : en:00:12:17.028
00:21:58.150 : en:00:21:58.150
00:28:46.725 : en:00:28:46.725
00:40:03.192 : en:00:40:03.192
00:48:00.211 : en:00:48:00.211
00:59:03.874 : en:00:59:03.874
01:05:39.769 : en:01:05:39.769
01:19:03.948 : en:01:19:03.948
01:29:31.366 : en:01:29:31.366
01:42:21.635 : en:01:42:21.635
01:46:42.396 : en:01:46:42.396
-Скриншоты:

[Цитировать]



Показать сообщения:    

Текущее время: 10-Дек 23:31

Часовой пояс: UTC + 3


Вы не можете начинать темы
Вы не можете отвечать на сообщения
Вы не можете редактировать свои сообщения
Вы не можете удалять свои сообщения
Вы не можете голосовать в опросах
Вы не можете прикреплять файлы к сообщениям
Вы не можете скачивать файлы

!ВНИМАНИЕ!
Сайт не предоставляет электронные версии произведений, а занимается лишь коллекционированием и каталогизацией ссылок, присылаемых и публикуемых на форуме нашими читателями. Если вы являетесь правообладателем какого-либо представленного материала и не желаете, чтобы ссылка на него находилась в нашем каталоге, свяжитесь с нами, и мы незамедлительно удалим ее. Файлы для обмена на трекере предоставлены пользователями сайта, и администрация не несет ответственности за их содержание. Просьба не заливать файлы, защищенные авторскими правами, а также файлы нелегального содержания!