[ Сегодня идет свободное скачивание без начисления Download ]


Статистика раздачи
Нет
 
   
 
Top  
 
 
-Ёлки 3 (2013) DVDRip
«Вместе теплее»
- Год выпуска: 2013
Производство: Россия | Bazelevs Production
Жанр: Семейный, Комедия
Перевод: Не требуется (русский) Лицензия
Субтитры: Отсутствуют-Дата мировой премьеры: 26 декабря 2013 (Армения, Россия, Украина)
Дата российской премьеры: 26 декабря 2013, «Bazelevs Distribution»
Дата выхода DVD релиза: 27 января 2014, «Новый Диск»
Дата выхода Blu-Ray релиза: 27 января 2014, «Новый Диск»-Режиссер: Ольга Харина, Дмитрий Киселёв, Александр Котт-Продюсер: Тимур Бекмамбетов, Ива Стромилова, Ольга Харина-Актеры: Дато Бахтадзе, Мария Порошина, Сергей Светлаков, Анна Чиповская, Петр Федоров, Юрий Куценко, Андрюс Паулавичюс, Иван Ургант, Александр Головин, Мария Шукшина, Валентин Гафт, Александр Илин, Мария Луговая, Антон Богданов, Александр Робак, Ольга Тумайкина, Иван Непомнящий, Евгений Ткачук, Дмитрий Дьячук, Владимир Мальков, Лера Стреляева, Александр Домогаров ...-Описание фильма:
…C тех пор, как мы не виделись, прошло два года. Два года, наполненные большими и маленькими событиями для наших любимых героев: кто-то родился, кто-то женился, кто-то развёлся, а кто-то попал в армию. Но праздничная ночь встречи Нового 2014 года чудесным образом вновь объединит их судьбы. Объединит в соответствии с "теорией бумеранга", согласно которой добрые дела всё время возвращаются к тому, кто их делает. На этот раз бумеранг добра пролетит не только по карте России, но и выйдет за её пределы. Помимо Москвы, Питера, Перми, Самары, Екатеринбурга, Новосибирска мы попадём и на остров Ратманова в Беринговом проливе, где людям в Новый год холодно так же, как и собакам. И в Лондон, где собаки попытаются найти простое счастье, так похожее на человеческое. И даже в Нью-Йорк, в котором тоже есть своя маленькая Россия со своим русским Новым годом…-
Продолжительность: 01:32:38
Качество видео: DVDRip
Видеокодек: MPEG-4 AVC/H.264
Битрейт видео: ~ 1786 Кбит/сек
Размер кадра: 720 x [email protected] x 440 (2.327) at 25.000 fps : 0.226 Bits/Pixel
Аудиокодек: AC3 5.1
Битрейт аудио: 448 Кбит/сек, 48,0 КГц, 16 бит
Дополнительно: Главы присутствуют
Релиз:

Трейлер / Ролик

[youtube]http://www.youtube.com/v/mHz6ii8eqW0&fs=1[/youtube]

Знаете ли вы, что...

• 27 июня 2013 года в Уфе стартовала масштабная акция «Готовь «Ёлки» летом!». Суть акции заключается в том, что жители разных городов сложат свою букву поздравительной фразы «С Новым Годом!», которая появится в финале комедии «Ёлки 3». Помимо Уфы съёмки таких букв прошли в Магнитогорске, Перми, Алматы, Краснодаре, Екатеринбурге, Воронеже, Иркутске, Санкт-Петербурге, Владивостоке и Калининграде. Сами же съёмки фильма начались 26 февраля 2013 года в Новосибирске.

MediaInfo:

Уникальный идентификатор                 : 237865440314200416307802596958046565585 (0xB2F337A912A7F1ACB1F60E3C2F18B4D1)
Полное имя                               : H:\Elki.3.2013.O.DVDRip.x264.1400MB.NNM-CLUB.GIU.mkv
Формат                                   : Matroska
Версия формата                           : Version 2
Размер файла                             : 1,45 Гбайт
Продолжительность                        : 1 ч. 32 м.
Общий поток                              : 2236 Кбит/сек
Название фильма                          : Elki.3.2013.O.DVDRip.x264.1400MB.NNM-CLUB.GIU
Дата кодирования                         : UTC 2014-01-19 18:14:40
Программа кодирования                    : mkvmerge v2.9.9 ('Tutu') built on Nov 25 2009 21:13:32
Библиотека кодирования                   : libebml v0.7.9 + libmatroska v0.8.1
Видео
Идентификатор                            : 1
Формат                                   : AVC
Формат/Информация                        : Advanced Video Codec
Профиль формата                          : [url=mailto:[email protected]][email protected][/url]
Параметр CABAC формата                   : Да
Параметр ReFrames формата                : 10 кадров
Идентификатор кодека                     : V_MPEG4/ISO/AVC
Продолжительность                        : 1 ч. 32 м.
Битрейт                                  : 1786 Кбит/сек
Ширина                                   : 720 пикселей
Высота                                   : 440 пикселей
Соотношение сторон                       : 2,35:1
Режим частоты кадров                     : Постоянный
Частота кадров                           : 25,000 кадров/сек
Цветовое пространство                    : YUV
Субдискретизация насыщенности            : 4:2:0
Битовая глубина                          : 8 бит
Тип развёртки                            : Прогрессивная
Бит/(Пиксели*Кадры)                      : 0.226
Размер потока                            : 1,13 Гбайт (78%)
Заголовок                                : -=Release for NNM-CLUB.RU=-
Библиотека кодирования                   : x264 core 119 r2106 07efeb4
Настройки программы                      : cabac=1 / ref=10 / deblock=1:-3:-3 / analyse=0x3:0x113 / me=umh / subme=10 / psy=1 / psy_rd=1.00:0.00 / mixed_ref=0 / me_range=32 / chroma_me=1 / trellis=2 / 8x8dct=1 / cqm=0 / deadzone=21,11 / fast_pskip=1 / chroma_qp_offset=-2 / threads=12 / sliced_threads=0 / nr=0 / decimate=0 / interlaced=0 / bluray_compat=0 / constrained_intra=0 / bframes=8 / b_pyramid=2 / b_adapt=2 / b_bias=0 / direct=1 / weightb=1 / open_gop=0 / weightp=2 / keyint=250 / keyint_min=25 / scenecut=40 / intra_refresh=0 / rc_lookahead=40 / rc=2pass / mbtree=1 / bitrate=1786 / ratetol=1.0 / qcomp=0.70 / qpmin=0 / qpmax=69 / qpstep=4 / cplxblur=20.0 / qblur=0.5 / ip_ratio=1.40 / aq=1:0.60
Язык                                     : Russian
Default                                  : Нет
Forced                                   : Нет
Аудио
Идентификатор                            : 2
Формат                                   : AC-3
Формат/Информация                        : Audio Coding 3
Расширение режима                        : CM (complete main)
Параметр Endianness формата              : Big
Идентификатор кодека                     : A_AC3
Продолжительность                        : 1 ч. 32 м.
Вид битрейта                             : Постоянный
Битрейт                                  : 448 Кбит/сек
Каналы                                   : 6 каналов
Расположение каналов                     : Front: L C R, Side: L R, LFE
Частота                                  : 48,0 КГц
Битовая глубина                          : 16 бит
Метод сжатия                             : С потерями
Размер потока                            : 298 Мбайт (20%)
Заголовок                                : AC3.448.Kbps (6ch) Russian
Язык                                     : Russian
Default                                  : Нет
Forced                                   : Нет
Меню
00:00:00.000                             : :Chapter 01
00:01:27.760                             : :Chapter 02
00:10:08.080                             : :Chapter 03
00:21:59.920                             : :Chapter 04
00:34:15.760                             : :Chapter 05
00:44:49.840                             : :Chapter 06
00:56:58.960                             : :Chapter 07
01:10:42.160                             : :Chapter 08
01:21:43.120                             : :Chapter 09

x264 iNFO

x264 [info]: profile Main, level 4.1
x264 [info]: frame I:1831 Avg QP:18.39 size: 44471
x264 [info]: frame P:33192 Avg QP:22.26 size: 17917
x264 [info]: frame B:104422 Avg QP:25.22 size: 5450
x264 [info]: consecutive B-frames: 3.6% 3.5% 13.4% 22.4% 11.5% 40.7% 2.8% 1.0% 1.0%
Скриншоты:




[Цитировать]

Топик был перенесен из форума Новинки кинопроката в форум Комедия
Henkok



Показать сообщения:    

Текущее время: 05-Дек 05:25

Часовой пояс: UTC + 3


Вы не можете начинать темы
Вы не можете отвечать на сообщения
Вы не можете редактировать свои сообщения
Вы не можете удалять свои сообщения
Вы не можете голосовать в опросах
Вы не можете прикреплять файлы к сообщениям
Вы не можете скачивать файлы

!ВНИМАНИЕ!
Сайт не предоставляет электронные версии произведений, а занимается лишь коллекционированием и каталогизацией ссылок, присылаемых и публикуемых на форуме нашими читателями. Если вы являетесь правообладателем какого-либо представленного материала и не желаете, чтобы ссылка на него находилась в нашем каталоге, свяжитесь с нами, и мы незамедлительно удалим ее. Файлы для обмена на трекере предоставлены пользователями сайта, и администрация не несет ответственности за их содержание. Просьба не заливать файлы, защищенные авторскими правами, а также файлы нелегального содержания!