[ Сегодня идет свободное скачивание без начисления Download ]


Статистика раздачи
Нет
 
   
 
Top  
 
 
-Гравитация / Gravity (2013) WEB-DL [H.264/720p-LQ] [Line]-«Не отпускай»- Год выпуска: 2013
Производство: США, Warner Bros., Esperanto Filmoj, Heyday Films
Жанр: Фантастика, Триллер, Драма
Перевод: Дублированный (Чистый звук)
Субтитры: Отсутствуют-Дата мировой премьеры: 28 августа 2013
Дата российской премьеры: 3 октября 2013, «Каро-Премьер»
Дата выхода DVD релиза: 21 февраля 2014, «CP Дистрибуция»-Режиссер: Альфонсо Куарон
Продюсер: Альфонсо Куарон, Дэвид Хейман, Кристофер ДеФариа
Актеры: Сандра Буллок, Джордж Клуни, Эд Харрис, Орто Игнатиуссен, Пол Шарма, Эми Уоррен, Башер Саваж-Роли дублировали: Мария Фортунатова, Дмитрий Матвеев, Сергей Чихачев, Диомид Виноградов-Описание фильма:
Доктор Райан Стоун, блестящий специалист в области медицинского инжиниринга, отправляется в свою первую космическую миссию под командованием ветерана астронавтики Мэтта Ковальски, для которого этот полет — последний перед отставкой. Но во время, казалось бы, рутинной работы за бортом случается катастрофа.
Шаттл уничтожен, а Стоун и Ковальски остаются совершенно одни; они находятся в связке друг с другом, и все, что они могут, — это двигаться по орбите в абсолютно черном пространстве без всякой связи с Землей и какой-либо надежды на спасение.-
Продолжительность: 01:30:57
Качество видео: WEB-DL 720p
Видеокодек: MPEG-4 AVC/H.264
Битрейт видео: ~3928 kb/s
Размер кадра: 1280x532
Аудио №1: AC3, 192 kb/s (2 ch) [Русский, Дубляж]
Аудио №2: AC3, 384 kb/s (6 ch) [Английский]
Сэмпл: Скачать

MediaInfo:

Общее
Уникальный идентификатор : 252030705606759739835870068767481680901 (0xBD9B592918534EDC84053ED791F45405)
Полное имя : C:\Users\Roma\Documents\Торренты\Gravitacija2013D.WEB-DL_720p.mkv
Формат : Matroska
Версия формата : Version 2
Размер файла : 2,92 Гбайт
Продолжительность : 1 ч. 30 м.
Общий поток : 4595 Кбит/сек
Дата кодирования : UTC 2014-01-06 14:10:19
Программа кодирования : mkvmerge v5.8.0 ('No Sleep / Pillow') built on Sep 2 2012 15:37:04
Библиотека кодирования : libebml v1.2.3 + libmatroska v1.3.0
Видео
Идентификатор : 1
Формат : AVC
Формат/Информация : Advanced Video Codec
Профиль формата : Main@L3.1
Параметр CABAC формата : Нет
Параметр ReFrames формата : 2 кадра
Идентификатор кодека : V_MPEG4/ISO/AVC
Продолжительность : 1 ч. 30 м.
Битрейт : 3928 Кбит/сек
Ширина : 1280 пикселей
Высота : 532 пикселя
Соотношение сторон : 2,40:1
Режим частоты кадров : Постоянный
Частота кадров : 23,976 кадра/сек
Цветовое пространство : YUV
Субдискретизация насыщенности : 4:2:0
Битовая глубина : 8 бит
Тип развёртки : Прогрессивная
Бит/(Пиксели*Кадры) : 0.241
Размер потока : 2,50 Гбайт (85%)
Язык : English
Default : Да
Forced : Нет
Основные цвета : BT.709
Характеристики трансфера : BT.709
Коэффициенты матрицы : BT.709
Аудио #1
Идентификатор : 2
Формат : AC-3
Формат/Информация : Audio Coding 3
Расширение режима : CM (complete main)
Параметр Endianness формата : Big
Идентификатор кодека : A_AC3
Продолжительность : 1 ч. 30 м.
Вид битрейта : Постоянный
Битрейт : 192 Кбит/сек
Каналы : 2 канала
Расположение каналов : Front: L R
Частота : 48,0 КГц
Битовая глубина : 16 бит
Метод сжатия : С потерями
Размер потока : 125 Мбайт (4%)
Язык : Russian
Default : Да
Forced : Нет
Аудио #2
Идентификатор : 3
Формат : AC-3
Формат/Информация : Audio Coding 3
Расширение режима : CM (complete main)
Параметр Endianness формата : Big
Идентификатор кодека : A_AC3
Продолжительность : 1 ч. 30 м.
Вид битрейта : Постоянный
Битрейт : 384 Кбит/сек
Каналы : 6 каналов
Расположение каналов : Front: L C R, Side: L R, LFE
Частота : 48,0 КГц
Битовая глубина : 16 бит
Метод сжатия : С потерями
Размер потока : 250 Мбайт (8%)
Язык : English
Default : Нет
Forced : Нет
Скриншоты:

[Цитировать]



Показать сообщения:    

Текущее время: 10-Дек 04:11

Часовой пояс: UTC + 3


Вы не можете начинать темы
Вы не можете отвечать на сообщения
Вы не можете редактировать свои сообщения
Вы не можете удалять свои сообщения
Вы не можете голосовать в опросах
Вы не можете прикреплять файлы к сообщениям
Вы не можете скачивать файлы

!ВНИМАНИЕ!
Сайт не предоставляет электронные версии произведений, а занимается лишь коллекционированием и каталогизацией ссылок, присылаемых и публикуемых на форуме нашими читателями. Если вы являетесь правообладателем какого-либо представленного материала и не желаете, чтобы ссылка на него находилась в нашем каталоге, свяжитесь с нами, и мы незамедлительно удалим ее. Файлы для обмена на трекере предоставлены пользователями сайта, и администрация не несет ответственности за их содержание. Просьба не заливать файлы, защищенные авторскими правами, а также файлы нелегального содержания!