[ Сегодня идет свободное скачивание без начисления Download ]


Статистика раздачи
Нет
 
   
 
Top  
 
 
-Байки Митяя (1-20 серия из 20) (2012) SATRip- Русское название: Байки Митяя
Год выпуска: 2012
Производство: Украина, «Студия Квартал-95»
Жанр: Лирическая комедия
Дата премьеры: 6 февраля 2012 (телеканал Интер)

Режиссер: Алексей Кирющенко
Актеры: Николай Добрынин, Алексей Смолка, Михаил Романов, Виктор Андриенко, Виктор Сарайкин, Александр Игнатуша, Евгений Кошевой, Егор Крутоголов, Юрий Крапов
Описание фильма:
Митяй неисправимый оптимист и романтик, а еще неугомонный фантазер и великолепный рассказчик. В принципе эти черты его характера - единственное богатство, нажитое им за все время жизни в ПГТ Кучугуры. Каждый раз, попадая в различные житейские ситуации, Митяй дабы выкрутиться из положения, рассказывает собеседнику историю из своей жизни, или если угодно байку. Но байка – она ведь на то и есть байка, что даже правда в ней смотрится несколько утрированной и приукрашенной. Вот и получается, что Митяй служил в секретных войсках, был личным водителем Брежнева, слетал на Луну еще до Американцев, первым придумал радио, спас жизнь Горбачеву, был первым солистом Ласкового Мая и т.д. и т.п. Верить или нет – дело ваше. Но Митяй клянется, что так все и было.
Продолжительность: 20 х 00:27:42
Качество видео: SATRip
Видеокодек: XviD
Битрейт видео: ~1640 Кбит/сек
Размер кадра: 720x400
Аудиокодек: MP3 (2ch)
Битрейт аудио: 128 Кбит/сек

MediaInfo:

Общее
Полное имя : D:\Торренты!\Байки Митяя (2012) SATRip\Байки Митяя.(04 серия из 20).2012.SATRip.avi
Формат : AVI
Формат/Информация : Audio Video Interleave
Размер файла : 362 Мбайт
Продолжительность : 28 м.
Общий поток : 1778 Кбит/сек
Библиотека кодирования : VirtualDub build 32842/release
Видео
Идентификатор : 0
Формат : MPEG-4 Visual
Профиль формата : Advanced Simple@L5
Параметр BVOP формата : 2
Параметр QPel формата : Нет
Параметр GMC формата : Без точки перехода
Параметр матрицы формата : Default (H.263)
Режим смешивания : Сжатый битовый поток
Идентификатор кодека : XVID
Идентификатор кодека/Подсказка : XviD
Продолжительность : 28 м.
Битрейт : 1640 Кбит/сек
Ширина : 720 пикселей
Высота : 400 пикселей
Соотношение сторон : 16:9
Частота кадров : 25,000 кадров/сек
Цветовое пространство : YUV
Субдискретизация насыщенности : 4:2:0
Битовая глубина : 8 бит
Тип развёртки : Прогрессивная
Метод сжатия : С потерями
Бит/(Пиксели*Кадры) : 0.228
Размер потока : 334 Мбайт (92%)
Библиотека кодирования : XviD 64
Аудио
Идентификатор : 1
Формат : MPEG Audio
Версия формата : Version 1
Профиль формата : Layer 3
Режим : Joint stereo
Расширение режима : MS Stereo
Идентификатор кодека : 55
Идентификатор кодека/Подсказка : MP3
Продолжительность : 28 м.
Вид битрейта : Постоянный
Битрейт : 128 Кбит/сек
Каналы : 2 канала
Частота : 44,1 КГц
Метод сжатия : С потерями
Размер потока : 26,0 Мбайт (7%)
Выравнивание : Разделение по промежуткам
Продолжительность промежутка : 40 мс. (1,00 видеокадр)
Время предзагрузки промежутка : 500 мс.
Библиотека кодирования : LAME3.98.2

[Цитировать]



Показать сообщения:    

Текущее время: 07-Дек 21:13

Часовой пояс: UTC + 3


Вы не можете начинать темы
Вы не можете отвечать на сообщения
Вы не можете редактировать свои сообщения
Вы не можете удалять свои сообщения
Вы не можете голосовать в опросах
Вы не можете прикреплять файлы к сообщениям
Вы не можете скачивать файлы

!ВНИМАНИЕ!
Сайт не предоставляет электронные версии произведений, а занимается лишь коллекционированием и каталогизацией ссылок, присылаемых и публикуемых на форуме нашими читателями. Если вы являетесь правообладателем какого-либо представленного материала и не желаете, чтобы ссылка на него находилась в нашем каталоге, свяжитесь с нами, и мы незамедлительно удалим ее. Файлы для обмена на трекере предоставлены пользователями сайта, и администрация не несет ответственности за их содержание. Просьба не заливать файлы, защищенные авторскими правами, а также файлы нелегального содержания!