[ Сегодня идет свободное скачивание без начисления Download ]


Статистика раздачи
Нет
 
   
 
Top  
 
 
-Взгляд зимы / Cold Comes the Night (2013) WEB-DLRip«Sometimes the fight of your life comes in the dead of nigh»- Год выпуска: 2013
Производство: США
Жанр: Триллер, Драма, Криминал
Перевод: Одноголосый закадровый, любительский (Хихикающий доктор)
Субтитры: Отсутствуют
Дата мировой премьеры: 20 сентября 2013
Дата выхода DVD релиза: 4 марта 2014, «Columbia/Sony»
Режиссер: Це Чун
Продюсер: Скотт Холли, Минетт Луи
Актеры: Элис Ив, Брайан Крэнстон, Логан Маршалл-Грин, Урсула Паркер, Лео Фицпатрик, Эрин Каммингс, Робин Тейлор, Сара Соколович, Марселин Хьюго, Эсау Притчетт
Описание фильма:
Пытающийся справиться с трудностями владелец отеля и его дочь захвачены в заложники почти слепым профессиональным преступником, чтобы они были его глазами, когда он попытается вернуть свои деньги у грязного полицейского.
Продолжительность: 01:30:27
Качество видео: WEB-DLRip
Видеокодек: Xvid
Битрейт видео: ~941 Kbit/s
Размер кадра: 720 x 398
Аудиокодек: MP3 2.0
Битрейт аудио: 192 Kbit/s

MediaInfo

Общее
Полное имя : D:\Торренты\РЕЛИЗЫ\Cold.Comes.the.Night.2013..avi
Формат : AVI
Формат/Информация : Audio Video Interleave
Размер файла : 739 Мбайт
Продолжительность : 1 ч. 30 м.
Общий поток : 1143 Кбит/сек
Программа кодирования : VirtualDubMod 1.5.10.3 (build 2550/release)
Библиотека кодирования : VirtualDubMod build 2550/release
Видео
Идентификатор : 0
Формат : MPEG-4 Visual
Профиль формата : Advanced Simple@L5
Параметр BVOP формата : 2
Параметр QPel формата : Нет
Параметр GMC формата : Без точки перехода
Параметр матрицы формата : Default (H.263)
Идентификатор кодека : XVID
Идентификатор кодека/Подсказка : XviD
Продолжительность : 1 ч. 30 м.
Битрейт : 941 Кбит/сек
Ширина : 720 пикс.
Высота : 398 пикс.
Соотношение сторон : 16:9
Частота кадров : 23,976 кадр/сек
Цветовое пространство : YUV
Подвыборка цветности : 4:2:0
Битовая глубина : 8 бит
Тип развёртки : Прогрессивная
Метод сжатия : С потерями
Бит/(Пиксели*Кадры) : 0.137
Размер потока : 609 Мбайт (82%)
Библиотека кодирования : XviD 1.2.1 (UTC 2008-12-04)
Аудио
Идентификатор : 1
Формат : MPEG Audio
Версия формата : Version 1
Профиль формата : Layer 3
Идентификатор кодека : 55
Идентификатор кодека/Подсказка : MP3
Продолжительность : 1 ч. 30 м.
Вид битрейта : Постоянный
Битрейт : 192 Кбит/сек
Каналы : 2 канала
Частота : 44,1 КГц
Метод сжатия : С потерями
Задержка видео : 18 мс.
Размер потока : 124 Мбайт (17%)
Выравнивание : Разделение по промежуткам
Продолжительность промежутка : 42 мс. (1,00 видеокадр)
Время предзагрузки промежутка : 500 ms
Скриншоты:
[th]http://img.torrentsclub.org/di/H46M/04256bb47a88804...363dcfb.jpg[/th] [th]http://img.torrentsclub.org/di/XNGH/bfc4aead3b9a3cb...34e1da1.jpg[/th] [th]http://img.torrentsclub.org/di/I7AZ/e3c63b2f998f9ee...61d5c89.jpg[/th]
Время раздачи: 24/7 по возможности

[Цитировать]



Показать сообщения:    

Текущее время: 08-Дек 01:19

Часовой пояс: UTC + 3


Вы не можете начинать темы
Вы не можете отвечать на сообщения
Вы не можете редактировать свои сообщения
Вы не можете удалять свои сообщения
Вы не можете голосовать в опросах
Вы не можете прикреплять файлы к сообщениям
Вы не можете скачивать файлы

!ВНИМАНИЕ!
Сайт не предоставляет электронные версии произведений, а занимается лишь коллекционированием и каталогизацией ссылок, присылаемых и публикуемых на форуме нашими читателями. Если вы являетесь правообладателем какого-либо представленного материала и не желаете, чтобы ссылка на него находилась в нашем каталоге, свяжитесь с нами, и мы незамедлительно удалим ее. Файлы для обмена на трекере предоставлены пользователями сайта, и администрация не несет ответственности за их содержание. Просьба не заливать файлы, защищенные авторскими правами, а также файлы нелегального содержания!