[ Сегодня идет свободное скачивание без начисления Download ]


Статистика раздачи
Нет
 
   
 
Top  
 
 
-Ёлки 3 (2013) BDRip- Год выпуска: 2013
Производство: Россия
Жанр: Комедия, Семейный
Перевод: Не требуется (Русский)
Язык субтитров: Английский
Субтитры: Вшитые отключаемые
Режиссер: Ольга Харина, Дмитрий Киселёв, Александр Котт, Александр Карпиловский, Леван Габриадзе, Антон Мегердичев, Екатерина Телегина, Заур Засеев
Актеры: Иван Ургант, Сергей Светлаков, Гоша Куценко, Валентин Гафт, Татьяна Догилева, Пётр Фёдоров, Анна Чиповская, Мария Шукшина, Константин Хабенский, Антон Богданов, Вера Строкова, Анна Хилькевич
Описание фильма:
Спустя два года они снова с нами: любимые герои «Ёлок» в самых невероятных новогодних историях. Боря и Женя, чьи годовалые дети в канун праздника доведут друзей до психушки. Маленькая девочка Настя, чьи родители разлучат ее влюбленных друг в друга собак. Лыжник и сноубордист в самой экстремальной в их жизни гонке — от военкома. И профессор из Екатеринбурга Андрей, чья любвеобильность вновь не доведет его до добра, а только до проруби в минус 30. Под бой курантов этих и новых героев «Ёлок» объединит бумеранг добра. Завершая свой круг, он заслуженно вернётся к каждому, кто его однажды запустил — кому улыбками и объятиями любимых и друзей, кому — праздничным настроением и соответствующим градусу состоянием, а кому-то… телефоном в холодце!
Дата мировой премьеры: 26 декабря 2013
Дата российской премьеры: 26 декабря 2013, «Bazelevs Distribution»
Дата выхода DVD/Blu-Ray релиза: 27 января 2014, «Новый Диск»

Продолжительность: 01:36:50
Качество видео: BDRip [720p]
Видеокодек: MPEG-4 AVC/H.264
Видео: 1280x538, ~5922 kbps
Аудио 1: AC3, 6 ch, 640 kbps (Русский)
Аудио 2: DTS, 6 ch, 1509 kbps (Русский)

MediaInfo:

Общее
Уникальный идентификатор : 196365279893578018526830053150108536072 (0x93BA93C73694982A95A872C555A1CD08)
Полное имя : Elki3.2013.BDRip.720p.mkv
Формат : Matroska
Версия формата : Version 2
Размер файла : 5,57 Гбайт
Продолжительность : 1 ч. 36 м.
Общий поток : 8235 Кбит/сек
Название фильма : Elki 3 (2013)
Дата кодирования : UTC 2014-01-22 10:04:10
Программа кодирования : mkvmerge v4.6.0 ('Still Crazy After All These Years') сборка от Mar 10 2011 02:50:32
Библиотека кодирования : libebml v1.2.0 + libmatroska v1.1.0
Видео
Идентификатор : 1
Формат : AVC
Формат/Информация : Advanced Video Codec
Профиль формата : High@L4.1
Параметр CABAC формата : Да
Параметр ReFrames формата : 12 кадров
Идентификатор кодека : V_MPEG4/ISO/AVC
Продолжительность : 1 ч. 36 м.
Битрейт : 5922 Кбит/сек
Ширина : 1280 пикселей
Высота : 538 пикселей
Соотношение сторон : 2,40:1
Режим частоты кадров : Постоянный
Частота кадров : 24,000 кадра/сек
Цветовое пространство : YUV
Субдискретизация насыщенности : 4:2:0
Битовая глубина : 8 бит
Тип развёртки : Прогрессивная
Бит/(Пиксели*Кадры) : 0.358
Размер потока : 4,01 Гбайт (72%)
Заголовок : Elki.3.2013.BDRip.720p
Библиотека кодирования : x264 core 140 r2377+40 929f149 tMod [8-bit@all X86_64]
Настройки программы : cabac=1 / ref=12 / deblock=1:-3:-3 / analyse=0x3:0x133 / me=umh / subme=11 / psy=1 / fade_compensate=0.00 / psy_rd=1.00:0.00 / mixed_ref=1 / me_range=48 / chroma_me=1 / trellis=2 / 8x8dct=1 / cqm=0 / deadzone=21,11 / fast_pskip=0 / chroma_qp_offset=-2 / threads=12 / lookahead_threads=2 / sliced_threads=0 / nr=0 / decimate=1 / interlaced=0 / bluray_compat=0 / constrained_intra=0 / fgo=0 / bframes=7 / b_pyramid=2 / b_adapt=2 / b_bias=0 / direct=1 / weightb=1 / open_gop=0 / weightp=2 / keyint=240 / keyint_min=24 / scenecut=40 / intra_refresh=0 / rc_lookahead=60 / rc=crf / mbtree=0 / crf=15.9000 / qcomp=0.70 / qpmin=0:0:0 / qpmax=69:69:69 / qpstep=4 / vbv_maxrate=50000 / vbv_bufsize=62500 / crf_max=0.0 / nal_hrd=none / filler=0 / ip_ratio=1.25 / pb_ratio=1.15 / aq=2:0.80 / aq-sensitivity=10.00 / aq-factor=1.00:1.00:1.00 / aq2=0 / aq3=0
Язык : Russian
Default : Да
Forced : Нет
Аудио #1
Идентификатор : 2
Формат : AC-3
Формат/Информация : Audio Coding 3
Расширение режима : CM (complete main)
Параметр Endianness формата : Big
Идентификатор кодека : A_AC3
Продолжительность : 1 ч. 36 м.
Вид битрейта : Постоянный
Битрейт : 640 Кбит/сек
Каналы : 6 каналов
Расположение каналов : Front: L C R, Side: L R, LFE
Частота : 48,0 КГц
Битовая глубина : 16 бит
Метод сжатия : С потерями
Размер потока : 443 Мбайт (8%)
Заголовок : AC3 5.1 640 kbps
Язык : Russian
Default : Да
Forced : Нет
Аудио #2
Идентификатор : 3
Формат : DTS
Формат/Информация : Digital Theater Systems
Режим : 16
Параметр Endianness формата : Big
Идентификатор кодека : A_DTS
Продолжительность : 1 ч. 36 м.
Вид битрейта : Постоянный
Битрейт : 1509 Кбит/сек
Каналы : 6 каналов
Расположение каналов : Front: L C R, Side: L R, LFE
Частота : 48,0 КГц
Битовая глубина : 24 бит
Метод сжатия : С потерями
Задержка видео : 11 мс.
Размер потока : 1,02 Гбайт (18%)
Заголовок : DTS 5.1 1509 kbps
Язык : Russian
Default : Нет
Forced : Нет
Текст
Идентификатор : 4
Формат : UTF-8
Идентификатор кодека : S_TEXT/UTF8
Идентификатор кодека/Информация : UTF-8 Plain Text
Заголовок : Full
Язык : English
Default : Нет
Forced : Нет
Меню
00:00:00.000 : ru:Chapter 1
00:01:32.708 : ru:Chapter 2
00:10:33.833 : ru:Chapter 3
00:20:56.000 : ru:Chapter 4
00:35:42.375 : ru:Chapter 5
00:46:41.583 : ru:Chapter 6
00:59:21.125 : ru:Chapter 7
01:13:40.500 : ru:Chapter 8
01:25:07.000 : ru:Chapter 9
Скриншоты:

[Цитировать]



Показать сообщения:    

Текущее время: 08-Дек 07:01

Часовой пояс: UTC + 3


Вы не можете начинать темы
Вы не можете отвечать на сообщения
Вы не можете редактировать свои сообщения
Вы не можете удалять свои сообщения
Вы не можете голосовать в опросах
Вы не можете прикреплять файлы к сообщениям
Вы не можете скачивать файлы

!ВНИМАНИЕ!
Сайт не предоставляет электронные версии произведений, а занимается лишь коллекционированием и каталогизацией ссылок, присылаемых и публикуемых на форуме нашими читателями. Если вы являетесь правообладателем какого-либо представленного материала и не желаете, чтобы ссылка на него находилась в нашем каталоге, свяжитесь с нами, и мы незамедлительно удалим ее. Файлы для обмена на трекере предоставлены пользователями сайта, и администрация не несет ответственности за их содержание. Просьба не заливать файлы, защищенные авторскими правами, а также файлы нелегального содержания!