[ Сегодня идет свободное скачивание без начисления Download ]


Статистика раздачи
Нет
 
   
 
Top  
 
 
-Свидание вслепую / Blind Date (1987) BDRip- Год выпуска: 1987
Жанр: Мелодрама, Комедия
Описание фильма:
Уолтер Дэвис - трудоголик, и вполне естественно, что все свое внимание он уделяет работе, а не личной жизни или внешности. Для очень важной деловой встречи в ресторане с новым партнером из Японии, Уолтеру потребовалась спутница.
Его брат посоветовал взять с собой очаровательную Надю, кузину его жены. Но есть одно но: Наде нельзя пить... совсем! К сожалению, это предупреждение Уолтер пропустил мимо ушей.
Режиссер: Блейк Эдвардс
Актеры: Ким Бейсингер, Брюс Уиллис, Джон Ларрокетт, Уильям Дэниелс, Джордж Коу, Марк Блум, Фил Хартмен, Стефани Фэраси, Элис Хёрсон, Грэм Старк
Роли дублировали: Анна Каменкова, Алексей Золотницкий, Владимир Антоник, Олег Голубицкий, Виктор Петров
Продолжительность: 01:35:13
Качество видео: BDRip [batonchik]
Перевод: Дублированный, закадровый многоголосый (2 шт.), закадровый одноголосый (2 шт.), украинский закадровый многоголосый
Язык субтитров: English, Russian
Вид субтитров: Вшитые (srt)-
Дата мировой премьеры: 24 марта 1987
Дата выхода DVD релиза: 20 июля 2000, «Columbia/Sony»-Релиз от: за исходник спасибо BLUEBIRD
Контейнер: MKV
Видео: 1280x536p / 23,976 fps / 16:9 / High Profile 4.1, H.264, ~ 6000 Кбит/сек
Аудио:
1. Dolby Digital Audio Russian 192 kbps 2.0 / 48 kHz / 192 kbps / DN -4dB / Dolby Surround (DUB)
2. Dolby Digital Audio Russian 448 kbps 5.1 / 48 kHz / 448 kbps / DN -4dB (MVO - R5)
3. Dolby Digital Audio Russian 192 kbps 2.0 / 48 kHz / 192 kbps / DN -4dB / Dolby Surround (MVO - NTV+)
4. Dolby Digital Audio Ukrainian 192 kbps 2.0 / 48 kHz / 192 kbps / DN -4dB / Dolby Surround (MVO - Так треба Продакшн)
5. Dolby Digital Audio Russian 192 kbps 2.0 / 48 kHz / 192 kbps / DN -4dB / Dolby Surround (VO - А.Михалев)
6. Dolby Digital Audio Russian 192 kbps 2.0 / 48 kHz / 192 kbps / DN -4dB / Dolby Surround (VO - Г.Либергал)
7. Dolby Digital Audio English 320 kbps 2.0 / 48 kHz / 16-bit (оригинал)

h.264 log:

--[Information] [21.01.2014 1:42:49] Standard error stream
---[Information] [21.01.2014 1:42:55] raw [info]: 1280x536p 1:1 @ 24000/1001 fps (cfr)
---[Information] [21.01.2014 1:42:55] x264 [info]: using SAR=1/1
---[Information] [21.01.2014 1:42:55] x264 [info]: using cpu capabilities: MMX2 SSE2Fast SSSE3 SSE4.2 AVX
---[Information] [21.01.2014 1:42:55] x264 [info]: profile High, level 4.1
---[Information] [21.01.2014 6:30:51] x264 [info]: frame I:803 Avg QP:15.86 size:148504
---[Information] [21.01.2014 6:30:51] x264 [info]: frame P:27190 Avg QP:18.39 size: 59657
---[Information] [21.01.2014 6:30:51] x264 [info]: frame B:108999 Avg QP:20.19 size: 23317

---[Information] [21.01.2014 6:30:51] x264 [info]: consecutive B-frames: 1.1% 2.0% 4.9% 17.0% 19.0% 39.0% 6.6% 7.5% 1.4% 0.3% 0.3% 0.9%
---[Information] [21.01.2014 6:30:51] x264 [info]: mb I I16..4: 12.8% 64.4% 22.8%
---[Information] [21.01.2014 6:30:51] x264 [info]: mb P I16..4: 0.2% 12.8% 1.6% P16..4: 24.4% 35.1% 17.6% 3.9% 0.6% skip: 3.7%
---[Information] [21.01.2014 6:30:51] x264 [info]: mb B I16..4: 0.0% 2.3% 0.1% B16..8: 37.2% 22.9% 5.9% direct: 8.7% skip:22.9% L0:44.3% L1:40.7% BI:15.0%
---[Information] [21.01.2014 6:30:51] x264 [info]: 8x8 transform intra:87.6% inter:51.8%
---[Information] [21.01.2014 6:30:51] x264 [info]: direct mvs spatial:98.1% temporal:1.9%
---[Information] [21.01.2014 6:30:51] x264 [info]: coded y,uvDC,uvAC intra: 98.3% 92.9% 78.7% inter: 50.3% 36.3% 11.4%
---[Information] [21.01.2014 6:30:51] x264 [info]: i16 v,h,dc,p: 9% 7% 34% 49%
---[Information] [21.01.2014 6:30:51] x264 [info]: i8 v,h,dc,ddl,ddr,vr,hd,vl,hu: 12% 8% 11% 9% 13% 12% 12% 11% 12%
---[Information] [21.01.2014 6:30:51] x264 [info]: i4 v,h,dc,ddl,ddr,vr,hd,vl,hu: 14% 9% 5% 8% 14% 13% 13% 11% 12%
---[Information] [21.01.2014 6:30:51] x264 [info]: i8c dc,h,v,p: 49% 18% 17% 16%
---[Information] [21.01.2014 6:30:51] x264 [info]: Weighted P-Frames: Y:3.1% UV:1.2%
---[Information] [21.01.2014 6:30:51] x264 [info]: ref P L0: 35.2% 11.0% 22.2% 7.7% 8.8% 5.2% 6.4% 3.2% 0.2% 0.0%
---[Information] [21.01.2014 6:30:51] x264 [info]: ref B L0: 66.8% 14.5% 7.7% 4.8% 3.5% 2.0% 0.7%
---[Information] [21.01.2014 6:30:51] x264 [info]: ref B L1: 92.2% 7.8%
---[Information] [21.01.2014 6:30:51] x264 [info]: kb/s:5996.67
---[Information] [21.01.2014 6:30:51] encoded 136992 frames, 7.93 fps, 5996.67 kb/s
--[Information] [21.01.2014 6:30:52] Final statistics
---[Information] [21.01.2014 6:30:52] Video Bitrate Desired: 6000 kbit/s
---[Information] [21.01.2014 6:30:52] Video Bitrate Obtained (approximate): 5998 kbit/s

MediaInfo:

Общее
Уникальный идентификатор : 221906093273049989146545733612057055370 (0xA6F18F19D0A2C8AFBADC487328CED08A)
Полное имя : \Свидание вслепую_Blind Date.1987.BDRip.720p.NNM-CLUB.mkv
Формат : Matroska
Версия формата : Version 2
Размер файла : 5,14 Гбайт
Продолжительность : 1 ч. 35 м.
Общий поток : 7728 Кбит/сек
Название фильма : Свидание вслепую_Blind Date.1987.BDRip.720p.NNM-CLUB
Дата кодирования : UTC 2014-01-22 13:38:52
Программа кодирования : mkvmerge v5.8.0 ('No Sleep / Pillow') built on Sep 2 2012 15:37:04
Библиотека кодирования : libebml v1.2.3 + libmatroska v1.3.0
Видео
Идентификатор : 1
Формат : AVC
Формат/Информация : Advanced Video Codec
Профиль формата : High@L4.1
Параметр CABAC формата : Да
Параметр ReFrames формата : 8 кадров
Идентификатор кодека : V_MPEG4/ISO/AVC
Продолжительность : 1 ч. 35 м.
Битрейт : 6000 Кбит/сек
Ширина : 1280 пикселей
Высота : 536 пикселей
Соотношение сторон : 2,40:1
Режим частоты кадров : Постоянный
Частота кадров : 23,976 кадра/сек
Цветовое пространство : YUV
Субдискретизация насыщенности : 4:2:0
Битовая глубина : 8 бит
Тип развёртки : Прогрессивная
Бит/(Пиксели*Кадры) : 0.365
Размер потока : 3,89 Гбайт (76%)
Заголовок : Свидание вслепую_Blind Date.1987.BDRip.720p.NNM-CLUB
Библиотека кодирования : x264 core 138 r2358 9e941d1
Настройки программы : cabac=1 / ref=8 / deblock=1:-2:-2 / analyse=0x3:0x133 / me=umh / subme=11 / psy=1 / psy_rd=1.00:0.15 / mixed_ref=1 / me_range=32 / chroma_me=1 / trellis=2 / 8x8dct=1 / cqm=0 / deadzone=21,11 / fast_pskip=0 / chroma_qp_offset=-3 / threads=12 / lookahead_threads=3 / sliced_threads=0 / nr=0 / decimate=1 / interlaced=0 / bluray_compat=0 / constrained_intra=0 / bframes=11 / b_pyramid=2 / b_adapt=2 / b_bias=0 / direct=3 / weightb=1 / open_gop=0 / weightp=2 / keyint=240 / keyint_min=22 / scenecut=40 / intra_refresh=0 / rc_lookahead=40 / rc=2pass / mbtree=1 / bitrate=6000 / ratetol=1.0 / qcomp=0.60 / qpmin=10 / qpmax=51 / qpstep=4 / cplxblur=20.0 / qblur=0.5 / vbv_maxrate=50000 / vbv_bufsize=62500 / nal_hrd=none / ip_ratio=1.40 / aq=1:1.00
Язык : English
Default : Да
Forced : Нет
Аудио #1
Идентификатор : 2
Формат : AC-3
Формат/Информация : Audio Coding 3
Профиль формата : Dolby Digital
Расширение режима : CM (complete main)
Параметр Endianness формата : Big
Идентификатор кодека : A_AC3
Продолжительность : 1 ч. 35 м.
Вид битрейта : Постоянный
Битрейт : 192 Кбит/сек
Каналы : 2 канала
Расположение каналов : Front: L R
Частота : 48,0 КГц
Битовая глубина : 16 бит
Метод сжатия : С потерями
Размер потока : 131 Мбайт (2%)
Заголовок : DUB
Язык : Russian
Default : Да
Forced : Нет
Аудио #2
Идентификатор : 3
Формат : AC-3
Формат/Информация : Audio Coding 3
Расширение режима : CM (complete main)
Параметр Endianness формата : Big
Идентификатор кодека : A_AC3
Продолжительность : 1 ч. 35 м.
Вид битрейта : Постоянный
Битрейт : 448 Кбит/сек
Каналы : 6 каналов
Расположение каналов : Front: L C R, Side: L R, LFE
Частота : 48,0 КГц
Битовая глубина : 16 бит
Метод сжатия : С потерями
Размер потока : 305 Мбайт (6%)
Заголовок : MVO - R5
Язык : Russian
Default : Нет
Forced : Нет
Аудио #3
Идентификатор : 4
Формат : AC-3
Формат/Информация : Audio Coding 3
Профиль формата : Dolby Digital
Расширение режима : CM (complete main)
Параметр Endianness формата : Big
Идентификатор кодека : A_AC3
Продолжительность : 1 ч. 35 м.
Вид битрейта : Постоянный
Битрейт : 192 Кбит/сек
Каналы : 2 канала
Расположение каналов : Front: L R
Частота : 48,0 КГц
Битовая глубина : 16 бит
Метод сжатия : С потерями
Размер потока : 131 Мбайт (2%)
Заголовок : MVO - NTV+
Язык : Russian
Default : Нет
Forced : Нет
Аудио #4
Идентификатор : 5
Формат : AC-3
Формат/Информация : Audio Coding 3
Профиль формата : Dolby Digital
Расширение режима : CM (complete main)
Параметр Endianness формата : Big
Идентификатор кодека : A_AC3
Продолжительность : 1 ч. 35 м.
Вид битрейта : Постоянный
Битрейт : 192 Кбит/сек
Каналы : 2 канала
Расположение каналов : Front: L R
Частота : 48,0 КГц
Битовая глубина : 16 бит
Метод сжатия : С потерями
Размер потока : 131 Мбайт (2%)
Заголовок : MVO - Так треба Продакшн
Язык : Ukrainian
Default : Нет
Forced : Нет
Аудио #5
Идентификатор : 6
Формат : AC-3
Формат/Информация : Audio Coding 3
Профиль формата : Dolby Digital
Расширение режима : CM (complete main)
Параметр Endianness формата : Big
Идентификатор кодека : A_AC3
Продолжительность : 1 ч. 35 м.
Вид битрейта : Постоянный
Битрейт : 192 Кбит/сек
Каналы : 2 канала
Расположение каналов : Front: L R
Частота : 48,0 КГц
Битовая глубина : 16 бит
Метод сжатия : С потерями
Размер потока : 131 Мбайт (2%)
Заголовок : VO - А.Михалев
Язык : Russian
Default : Нет
Forced : Нет
Аудио #6
Идентификатор : 7
Формат : AC-3
Формат/Информация : Audio Coding 3
Профиль формата : Dolby Digital
Расширение режима : CM (complete main)
Параметр Endianness формата : Big
Идентификатор кодека : A_AC3
Продолжительность : 1 ч. 35 м.
Вид битрейта : Постоянный
Битрейт : 192 Кбит/сек
Каналы : 2 канала
Расположение каналов : Front: L R
Частота : 48,0 КГц
Битовая глубина : 16 бит
Метод сжатия : С потерями
Размер потока : 131 Мбайт (2%)
Заголовок : VO - Г.Либергал
Язык : Russian
Default : Нет
Forced : Нет
Аудио #7
Идентификатор : 8
Формат : AC-3
Формат/Информация : Audio Coding 3
Расширение режима : CM (complete main)
Параметр Endianness формата : Big
Идентификатор кодека : A_AC3
Продолжительность : 1 ч. 35 м.
Вид битрейта : Постоянный
Битрейт : 320 Кбит/сек
Каналы : 2 канала
Расположение каналов : Front: L R
Частота : 48,0 КГц
Битовая глубина : 16 бит
Метод сжатия : С потерями
Размер потока : 218 Мбайт (4%)
Заголовок : Оригинал
Язык : English
Default : Нет
Forced : Нет
Текст #1
Идентификатор : 9
Формат : UTF-8
Идентификатор кодека : S_TEXT/UTF8
Идентификатор кодека/Информация : UTF-8 Plain Text
Язык : Russian
Default : Нет
Forced : Нет
Текст #2
Идентификатор : 10
Формат : UTF-8
Идентификатор кодека : S_TEXT/UTF8
Идентификатор кодека/Информация : UTF-8 Plain Text
Язык : English
Default : Да
Forced : Нет
Меню
00:00:00.000 : :Chapter 01
00:05:28.703 : :Chapter 02
00:10:19.952 : :Chapter 03
00:13:53.624 : :Chapter 04
00:18:20.349 : :Chapter 05
00:23:03.632 : :Chapter 06
00:27:42.369 : :Chapter 07
00:32:51.344 : :Chapter 08
00:37:31.290 : :Chapter 09
00:44:16.070 : :Chapter 10
00:51:33.006 : :Chapter 11
00:56:34.891 : :Chapter 12
01:03:47.573 : :Chapter 13
01:10:32.353 : :Chapter 14
01:22:26.483 : :Chapter 15
01:30:58.327 : :Chapter 16

Знаете ли Вы, что...

Уолтер — это второе имя Брюса Уиллиса.
Скриншоты:


[Цитировать]



Показать сообщения:    

Текущее время: 11-Дек 09:12

Часовой пояс: UTC + 3


Вы не можете начинать темы
Вы не можете отвечать на сообщения
Вы не можете редактировать свои сообщения
Вы не можете удалять свои сообщения
Вы не можете голосовать в опросах
Вы не можете прикреплять файлы к сообщениям
Вы не можете скачивать файлы

!ВНИМАНИЕ!
Сайт не предоставляет электронные версии произведений, а занимается лишь коллекционированием и каталогизацией ссылок, присылаемых и публикуемых на форуме нашими читателями. Если вы являетесь правообладателем какого-либо представленного материала и не желаете, чтобы ссылка на него находилась в нашем каталоге, свяжитесь с нами, и мы незамедлительно удалим ее. Файлы для обмена на трекере предоставлены пользователями сайта, и администрация не несет ответственности за их содержание. Просьба не заливать файлы, защищенные авторскими правами, а также файлы нелегального содержания!