[ Сегодня идет свободное скачивание без начисления Download ]


Статистика раздачи
Нет
 
   
 
Top  
 
 
-Гарри Поттер: Полная коллекция / Harry Potter: Complete collection (2001-2011) [1080p] BDRip- Русское название: Гарри Поттер: Полная коллекция
Оригинальное название: Harry Potter: Complete collection
Год выпуска: 2001-2011
Жанр: Триллер, Приключения, Фэнтези, Семейный
Режиссер: Крис Коламбус, Альфонсо Куарон, Майк Ньюэлл, Дэвид Йэтс
Качество видео: BDRip
Перевод: Дублированный
Страна: США, Великобритания
Продолжительность: 2:32:21 | 2:40:56 | 2:21:42 | 2:37:05 | 2:18:14 | 2:33:30 | 2:26:05 | 2:10:26
-Гарри Поттер и Философский камень / Harry Potter and the Sorcerer's Stone (2001) [1080p] BDRip- Русское название: Гарри Поттер и Философский камень
Оригинальное название: Harry Potter and the Sorcerer's Stone
Год выпуска: 2001
Страна: США, Великобритания
Жанр: Триллер, Приключения, Фэнтези, Семейный
Перевод: Дублированный
Субтитры: Русские, Английские

Режиссер: Крис Коламбус
Актеры: Дэниел Рэдклифф, Эмма Уотсон, Руперт Гринт, Ричард Харрис, Алан Рикман, Мэгги Смит, Робби Колтрейн, Саундерс Триплетс, Фиона Шоу, Гарри Меллинг, Ричард Гриффитс, Дерек Дэмэн, Ян Харт
Описание фильма:
Обычный лондонский мальчик Гарри Поттер на 11-м году жизни узнает, что он — осиротевший сын двух могущественных волшебников, и сам обладает магической силой.В Хогвартской школе чародейства и волшебства Гарри попадает в водоворот невероятных приключений. Он изучает квиддич — спорт высшего пилотажа, играет в захватывающую игру живыми шахматными фигурами, встречается с Темным Волшебником, который хочет его уничтожить.
Продолжительность:2:32:21
Качество видео: BDRip
Формат: MKV
Видео: MPEG-4 AVC [H.264], 1920х796, 23.976 fps, 10.0 Mbps
1.Аудио: Russian Dolby AC3, 48000 Hz, 5.1ch, 640 kbps (Дублированый)
2.Аудио: English DTS, 48000 Hz, 5.1ch, 1510 kbps

MediaInfo

Harry.Potter.and.the.Sorcerer's.Stone.2001.1080p.BDRip.x264.mkv
Format : Matroska
File size : 13.0 GiB
Duration : 2h 32mn
Overall bit rate : 12.2 Mbps
Movie name : Harry Potter and the Sorcerer's Stone
Encoded date : UTC 2010-02-06 19:40:36
Writing application : mkvmerge v3.1.0 ('Happy up here') built on Jan 19 2010 12:09:24
Writing library : libebml v0.7.9 + libmatroska v0.8.1
Video
ID : 1
Format : AVC
Format/Info : Advanced Video Codec
Format profile : High@L4.1
Format settings, CABAC : Yes
Format settings, ReFrames : 5 frames
Codec ID : V_MPEG4/ISO/AVC
Duration : 2h 32mn
Bit rate : 10.0 Mbps
Width : 1 920 pixels
Height : 796 pixels
Display aspect ratio : 2.40:1
Frame rate : 23.976 fps
Color space : YUV
Chroma subsampling : 4:2:0
Bit depth : 8 bits
Scan type : Progressive
Bits/(Pixel*Frame) : 0.274
Stream size : 10.4 GiB (80%)
Title : Harry Potter and the Sorcerer's Stone
Writing library : x264 core 64 r985 e256ea1
Encoding settings : cabac=1 / ref=5 / deblock=1:-3:-3 / analyse=0x3:0x113 / me=umh / subme=6 / psy_rd=1.0:0.0 / brdo=1 / mixed_ref=1 / me_range=16 / chroma_me=1 / trellis=0 / 8x8dct=1 / cqm=2 / deadzone=6,4 / chroma_qp_offset=-2 / threads=6 / nr=0 / decimate=0 / mbaff=0 / bframes=16 / b_pyramid=1 / b_adapt=1 / b_bias=0 / direct=1 / wpredb=1 / bime=1 / keyint=250 / keyint_min=25 / scenecut=40(pre) / rc=2pass / bitrate=10027 / ratetol=1.0 / qcomp=0.60 / qpmin=10 / qpmax=51 / qpstep=4 / cplxblur=20.0 / qblur=0.5 / ip_ratio=1.40 / pb_ratio=1.30 / aq=1:1.00
Language : English
Audio #1
ID : 2
Format : AC-3
Format/Info : Audio Coding 3
Mode extension : CM (complete main)
Codec ID : A_AC3
Duration : 2h 32mn
Bit rate mode : Constant
Bit rate : 640 Kbps
Channel(s) : 6 channels
Channel positions : Front: L C R, Side: L R, LFE
Sampling rate : 48.0 KHz
Bit depth : 16 bits
Compression mode : Lossy
Stream size : 697 MiB (5%)
Title : AC3 5.1 @ 640 kbps
Language : Russian
Audio #2
ID : 3
Format : DTS
Format/Info : Digital Theater Systems
Codec ID : A_DTS
Duration : 2h 32mn
Bit rate mode : Constant
Bit rate : 1 510 Kbps
Channel(s) : 6 channels
Channel positions : Front: L C R, Side: L R, LFE
Sampling rate : 48.0 KHz
Bit depth : 24 bits
Compression mode : Lossy
Stream size : 1.61 GiB (12%)
Title : DTS 5.1 @ 1536 kbps
Language : English
Text #1
ID : 4
Format : UTF-8
Codec ID : S_TEXT/UTF8
Codec ID/Info : UTF-8 Plain Text
Language : Russian
Text #2
ID : 5
Format : UTF-8
Codec ID : S_TEXT/UTF8
Codec ID/Info : UTF-8 Plain Text
Language : English
Скриншоты:
-Гарри Поттер и Тайная Комната / Harry Potter and the Chamber of Secrets (2002) [1080p] BDRip- Русское название: Гарри Поттер и Тайная Комната
Оригинальное название: Harry Potter and the Chamber of Secrets
Год выпуска: 2002
Страна: США, Великобритания
Жанр: Триллер, Приключения, Фэнтези, Семейный
Перевод: Дублированны
Субтитры: Русские, Английские

Режиссер: Крис Коламбус
Актеры: Дэниэл Рэдклифф, Руперт Гринт, Эмма Уотсон, Ричард Гриффитс, Фиона Шоу, Гарри Меллинг, Тоби Джонс, Джим Нортон, Вероника Клиффорд, Джеймс Фелпс
Описание фильма:
Гарри Поттер переходит на второй курс Школы чародейства и волшебства Хогвартс. Эльф Добби предупреждает Гарри об опасности, которая поджидает его там, и просит больше не возвращаться в школу.Юный волшебник не следует совету эльфа и становится свидетелем таинственных событий, разворачивающихся в Хогвартсе. Вскоре Гарри и его друзья узнают о существовании Тайной Комнаты и сталкиваются с новыми приключениями, пытаясь победить темные силы.
Продолжительность: 2:40:56
Качество видео: BDRip
Формат: MKV
Видео: MPEG-4 AVC [H.264], 1920х800, 23.976 fps, 9.41 Mbps
1.Аудио: Russian Dolby AC3, 48000 Hz, 5.1ch, 640 kbps (Дублированый)
2.Аудио: English DTS, 48000 Hz, 5.1ch, 1510 kbps

MediaInfo

Harry.Potter.and.the.Chamber.of.Secrets.2002.1080p.BDRip.x264.mkv
Format : Matroska
File size : 13.0 GiB
Duration : 2h 40mn
Overall bit rate : 11.6 Mbps
Movie name : Harry Potter and the Chamber of Secrets
Encoded date : UTC 2010-02-06 20:30:55
Writing application : mkvmerge v3.1.0 ('Happy up here') built on Jan 19 2010 12:09:24
Writing library : libebml v0.7.9 + libmatroska v0.8.1
Video
ID : 1
Format : AVC
Format/Info : Advanced Video Codec
Format profile : High@L4.1
Format settings, CABAC : Yes
Format settings, ReFrames : 5 frames
Codec ID : V_MPEG4/ISO/AVC
Duration : 2h 40mn
Bit rate : 9 410 Kbps
Width : 1 920 pixels
Height : 800 pixels
Display aspect ratio : 2.40:1
Frame rate : 23.976 fps
Color space : YUV
Chroma subsampling : 4:2:0
Bit depth : 8 bits
Scan type : Progressive
Bits/(Pixel*Frame) : 0.256
Stream size : 10.3 GiB (79%)
Title : Harry Potter and the Chamber of Secrets
Writing library : x264 core 64 r985 e256ea1
Encoding settings : cabac=1 / ref=5 / deblock=1:-3:-3 / analyse=0x3:0x113 / me=umh / subme=6 / psy_rd=1.0:0.0 / brdo=1 / mixed_ref=1 / me_range=16 / chroma_me=1 / trellis=0 / 8x8dct=1 / cqm=2 / deadzone=6,4 / chroma_qp_offset=-2 / threads=6 / nr=0 / decimate=0 / mbaff=0 / bframes=16 / b_pyramid=1 / b_adapt=1 / b_bias=0 / direct=1 / wpredb=1 / bime=1 / keyint=250 / keyint_min=25 / scenecut=40(pre) / rc=2pass / bitrate=9410 / ratetol=1.0 / qcomp=0.60 / qpmin=10 / qpmax=51 / qpstep=4 / cplxblur=20.0 / qblur=0.5 / ip_ratio=1.40 / pb_ratio=1.30 / aq=1:1.00
Language : English
Audio #1
ID : 2
Format : AC-3
Format/Info : Audio Coding 3
Mode extension : CM (complete main)
Codec ID : A_AC3
Duration : 2h 40mn
Bit rate mode : Constant
Bit rate : 640 Kbps
Channel(s) : 6 channels
Channel positions : Front: L C R, Side: L R, LFE
Sampling rate : 48.0 KHz
Bit depth : 16 bits
Compression mode : Lossy
Stream size : 737 MiB (6%)
Title : AC3 5.1 @ 640 kbps
Language : Russian
Audio #2
ID : 3
Format : DTS
Format/Info : Digital Theater Systems
Codec ID : A_DTS
Duration : 2h 40mn
Bit rate mode : Constant
Bit rate : 1 510 Kbps
Channel(s) : 6 channels
Channel positions : Front: L C R, Side: L R, LFE
Sampling rate : 48.0 KHz
Bit depth : 24 bits
Compression mode : Lossy
Stream size : 1.70 GiB (13%)
Title : DTS 5.1 @ 1536 kbps
Language : English
Text #1
ID : 4
Format : UTF-8
Codec ID : S_TEXT/UTF8
Codec ID/Info : UTF-8 Plain Text
Language : Russian
Text #2
ID : 5
Format : UTF-8
Codec ID : S_TEXT/UTF8
Codec ID/Info : UTF-8 Plain Text
Language : English
Скриншоты:
-Гарри Поттер и Узник Азкабана / Harry Potter and the Prisoner of Azkaban (2004) [1080p] BDRip- Русское название: Гарри Поттер и Узник Азкабана
Оригинальное название: Harry Potter and the Prisoner of Azkaban
Год выпуска: 2004
Страна: США, Великобритания
Жанр: Триллер, Приключения, Фэнтези, Семейный
Перевод: Дублированный
Субтитры: Русские, Английские

Режиссер: Альфонсо Куарон
Актеры: Дэниэл Рэдклифф, Эмма Уотсон, Руперт Гринт, Алан Рикман, Ричард Гриффитс, Пэм Феррис, Фиона Шоу, Гарри Меллинг, Адриан Роулинз, Джеральдин Соммервиль, Ли Инглби, Ленни Генри, Джимми Гарднер
Описание фильма:
В третьей части экранизации бестселлера о юном волшебнике, полюбившиеся всем герои — Гарри Поттер, Рон и Гермиона — возвращаются уже на третий курс школы чародейства и волшебства «Хогвартс». На этот раз они должны раскрыть тайну узника, сбежавшего из зловещей тюрьмы Азкабан, чье пребывание на воле создает для Гарри смертельную опасность…
Продолжительность: 2:21:42
Качество видео: BDRip
Формат: MKV
Видео: MPEG-4 AVC [H.264], 1920х796, 23.976 fps, 10.9 Mbps
1.Аудио: Russian Dolby AC3, 48000 Hz, 5.1ch, 640 kbps (Дублированый)
2.Аудио: English DTS, 48000 Hz, 5.1ch, 1510 kbps

MediaInfo

Harry.Potter.and.the.Prisoner.of.Azkaban.2004.1080p.BDRip.x264.mkv
Format : Matroska
File size : 12.9 GiB
Duration : 2h 21mn
Overall bit rate : 13.1 Mbps
Movie name : Harry Potter and the Prisoner of Azkaban
Encoded date : UTC 2010-02-06 17:26:08
Writing application : mkvmerge v3.1.0 ('Happy up here') built on Jan 19 2010 12:09:24
Writing library : libebml v0.7.9 + libmatroska v0.8.1
Video
ID : 1
Format : AVC
Format/Info : Advanced Video Codec
Format profile : High@L4.1
Format settings, CABAC : Yes
Format settings, ReFrames : 5 frames
Codec ID : V_MPEG4/ISO/AVC
Duration : 2h 21mn
Bit rate : 10.9 Mbps
Width : 1 920 pixels
Height : 796 pixels
Display aspect ratio : 2.40:1
Frame rate : 23.976 fps
Color space : YUV
Chroma subsampling : 4:2:0
Bit depth : 8 bits
Scan type : Progressive
Bits/(Pixel*Frame) : 0.297
Stream size : 10.5 GiB (82%)
Title : Harry Potter and the Prisoner of Azkaban
Writing library : x264 core 64 r985 e256ea1
Encoding settings : cabac=1 / ref=5 / deblock=1:-3:-3 / analyse=0x3:0x113 / me=umh / subme=6 / psy_rd=1.0:0.0 / brdo=1 / mixed_ref=1 / me_range=16 / chroma_me=1 / trellis=0 / 8x8dct=1 / cqm=2 / deadzone=6,4 / chroma_qp_offset=-2 / threads=6 / nr=0 / decimate=0 / mbaff=0 / bframes=16 / b_pyramid=1 / b_adapt=1 / b_bias=0 / direct=1 / wpredb=1 / bime=1 / keyint=250 / keyint_min=25 / scenecut=40(pre) / rc=2pass / bitrate=10897 / ratetol=1.0 / qcomp=0.60 / qpmin=10 / qpmax=51 / qpstep=4 / cplxblur=20.0 / qblur=0.5 / ip_ratio=1.40 / pb_ratio=1.30 / aq=1:1.00
Language : English
Audio #1
ID : 2
Format : AC-3
Format/Info : Audio Coding 3
Mode extension : CM (complete main)
Codec ID : A_AC3
Duration : 2h 21mn
Bit rate mode : Constant
Bit rate : 640 Kbps
Channel(s) : 6 channels
Channel positions : Front: L C R, Side: L R, LFE
Sampling rate : 48.0 KHz
Bit depth : 16 bits
Compression mode : Lossy
Stream size : 649 MiB (5%)
Title : AC3 5.1 @ 640 kbps
Language : Russian
Audio #2
ID : 3
Format : DTS
Format/Info : Digital Theater Systems
Codec ID : A_DTS
Duration : 2h 21mn
Bit rate mode : Constant
Bit rate : 1 510 Kbps
Channel(s) : 6 channels
Channel positions : Front: L C R, Side: L R, LFE
Sampling rate : 48.0 KHz
Bit depth : 24 bits
Compression mode : Lossy
Stream size : 1.49 GiB (12%)
Title : DTS 5.1 @ 1536 kbps
Language : English
Text #1
ID : 4
Format : UTF-8
Codec ID : S_TEXT/UTF8
Codec ID/Info : UTF-8 Plain Text
Language : Russian
Text #2
ID : 5
Format : UTF-8
Codec ID : S_TEXT/UTF8
Codec ID/Info : UTF-8 Plain Text
Language : English
Скриншоты:
-Гарри Поттер и Кубок огня / Harry Potter and the Goblet of Fire (2005) [1080p] BDRip- Русское название: Гарри Поттер и Кубок огня
Оригинальное название: Harry Potter and the Goblet of Fire
Год выпуска: 2005
Страна: США, Великобритания
Жанр: Триллер, Приключения, Фэнтези, Семейный
Перевод: Дублированный
Субтитры: Русские, Английские

Режиссер: Майк Ньюэлл
Актеры: Дэниэл Рэдклифф, Эмма Уотсон, Руперт Гринт, Алан Рикман, Эрик Сайкес, Тимоти Сполл, Дэвид Теннант, Марк Уильямс, Джеймс Фелпс, Оливер Фелпс
Описание фильма:
Гарри Поттер, Рон и Гермиона возвращаются на четвертый курс школы чародейства и волшебства «Хогвартс». При таинственных обстоятельствах Гарри отобран в число участников опасного соревнования — Турнира Трех Волшебников, однако проблема в том, что все его соперники — намного старше и сильнее.
К тому же, знаки указывают на возвращение Лорда Волдеморта. Вскоре Гарри предстоит побороться не только за победу в соревновании, но и, прежде всего, за свою жизнь…
Продолжительность: 2:37:05
Качество видео: BDRip
Формат: MKV
Видео: MPEG-4 AVC [H.264], 1920х798, 23.976 fps, 9.678 Mbps
1.Аудио: Russian Dolby AC3, 48000 Hz, 5.1ch, 448 kbps (Дублированый)
2.Аудио: English DTS, 48000 Hz, 5.1ch, 1510 kbps

MediaInfo

Harry.Potter.and.the.Goblet.of.Fire.2005.1080p.BDRip.x264.mkv
Format : Matroska
File size : 12.8 GiB
Duration : 2h 37mn
Overall bit rate : 11.6 Mbps
Movie name : Harry Potter and the Goblet of Fire
Encoded date : UTC 2010-02-06 18:11:18
Writing application : mkvmerge v3.1.0 ('Happy up here') built on Jan 19 2010 12:09:24
Writing library : libebml v0.7.9 + libmatroska v0.8.1
Video
ID : 1
Format : AVC
Format/Info : Advanced Video Codec
Format profile : High@L4.1
Format settings, CABAC : Yes
Format settings, ReFrames : 5 frames
Codec ID : V_MPEG4/ISO/AVC
Duration : 2h 37mn
Bit rate : 9 678 Kbps
Width : 1 920 pixels
Height : 798 pixels
Display aspect ratio : 2.40:1
Frame rate : 23.976 fps
Color space : YUV
Chroma subsampling : 4:2:0
Bit depth : 8 bits
Scan type : Progressive
Bits/(Pixel*Frame) : 0.263
Stream size : 10.4 GiB (81%)
Title : Harry Potter and the Goblet of Fire
Writing library : x264 core 64 r985 e256ea1
Encoding settings : cabac=1 / ref=5 / deblock=1:-3:-3 / analyse=0x3:0x113 / me=umh / subme=6 / psy_rd=1.0:0.0 / brdo=1 / mixed_ref=1 / me_range=16 / chroma_me=1 / trellis=0 / 8x8dct=1 / cqm=2 / deadzone=6,4 / chroma_qp_offset=-2 / threads=6 / nr=0 / decimate=0 / mbaff=0 / bframes=16 / b_pyramid=1 / b_adapt=1 / b_bias=0 / direct=1 / wpredb=1 / bime=1 / keyint=250 / keyint_min=25 / scenecut=40(pre) / rc=2pass / bitrate=9678 / ratetol=1.0 / qcomp=0.60 / qpmin=10 / qpmax=51 / qpstep=4 / cplxblur=20.0 / qblur=0.5 / ip_ratio=1.40 / pb_ratio=1.30 / aq=1:1.00
Language : English
Audio #1
ID : 2
Format : AC-3
Format/Info : Audio Coding 3
Mode extension : CM (complete main)
Codec ID : A_AC3
Duration : 2h 37mn
Bit rate mode : Constant
Bit rate : 448 Kbps
Channel(s) : 6 channels
Channel positions : Front: L C R, Side: L R, LFE
Sampling rate : 48.0 KHz
Bit depth : 16 bits
Compression mode : Lossy
Stream size : 503 MiB (4%)
Title : AC3 5.1 @ 448 kbps
Language : Russian
Audio #2
ID : 3
Format : DTS
Format/Info : Digital Theater Systems
Codec ID : A_DTS
Duration : 2h 37mn
Bit rate mode : Constant
Bit rate : 1 510 Kbps
Channel(s) : 6 channels
Channel positions : Front: L C R, Side: L R, LFE
Sampling rate : 48.0 KHz
Bit depth : 24 bits
Compression mode : Lossy
Stream size : 1.66 GiB (13%)
Title : DTS 5.1 @ 1536 kbps
Language : English
Text #1
ID : 4
Format : UTF-8
Codec ID : S_TEXT/UTF8
Codec ID/Info : UTF-8 Plain Text
Language : Russian
Text #2
ID : 5
Format : UTF-8
Codec ID : S_TEXT/UTF8
Codec ID/Info : UTF-8 Plain Text
Language : English
Скриншоты:
-Гарри Поттер и Орден Феникса / Harry Potter and the Order of the Phoenix (2007) [1080p] BDRip- Русское название: Гарри Поттер и Орден Феникса
Оригинальное название: Harry Potter and the Order of the Phoenix
Год выпуска: 2007
Страна: США, Великобритания
Жанр: Триллер, Приключения, Фэнтези, Семейный
Перевод: Дублированный
Субтитры: Русские, Английские

Режиссер: Дэвид Йэтс
Актеры: Дэниэл Рэдклифф, Эмма Уотсон, Руперт Гринт, Алан Рикман, Джейсон Бойд, Ричард Маклин, Гарри Меллинг, Кэтрин Хантер, Майлз Джапп, Фиона Шоу, Ричард Гриффитс
Описание фильма:
Гарри проводит свой пятый год обучения в школе Хогвартс и обнаруживает, что многие из членов волшебного сообщества отрицают сам факт недавнего состязания юного волшебника с воплощением вселенского зла Волдемортом, делая вид, что не имеют ни малейшего представления о том, что злодей вернулся.
Опасаясь, что почтенный глава Хогвартса Альбус Дамблдор распространяет лживые слухи о возвращении Волдеморта, стремясь подорвать авторитет Министра Магии Корнелиуса Фаджа и в дальнейшем занять его место, Корнелиус назначает нового профессора защиты от темных искусств, который должен будет пристально следить за Дамблдором и студентами Хогвартса.Но одобренный министерством курс лекций по защитной магии профессора Долорес Амбридж оказывается на практике абсолютно бесполезным — юные волшебники просто неспособны противостоять действию темных сил, угрожающих им и всему волшебному сообществу. И тогда, по настоянию своих друзей, Гермионы и Рона, Гарри берет инициативу в свои руки.Тайно встречаясь с небольшой группой студентов, называющей себя Отрядом Дамблдора, Гарри обучает их самозащите от темных сил, готовя отважных волшебников к необычной схватке, которая ждет их впереди.
Продолжительность: 2:18:14
Качество видео: BDRip
Формат: MKV
Видео: MPEG-4 AVC [H.264], 1920х796, 23.976 fps, 11.2 Mbps
1.Аудио: Russian Dolby AC3, 48000 Hz, 5.1ch, 640 kbps (Дублированый)
2.Аудио: English DTS, 48000 Hz, 5.1ch, 1510 kbps

MediaInfo

Harry.Potter.and.the.Order.of.the.Phoenix.2007.1080p.BDRip.x264.mkv
Format : Matroska
File size : 12.9 GiB
Duration : 2h 18mn
Overall bit rate : 13.4 Mbps
Movie name : Harry Potter and the Order of the Phoenix
Encoded date : UTC 2010-02-06 18:45:01
Writing application : mkvmerge v3.1.0 ('Happy up here') built on Jan 19 2010 12:09:24
Writing library : libebml v0.7.9 + libmatroska v0.8.1
Video
ID : 1
Format : AVC
Format/Info : Advanced Video Codec
Format profile : High@L4.1
Format settings, CABAC : Yes
Format settings, ReFrames : 5 frames
Codec ID : V_MPEG4/ISO/AVC
Duration : 2h 18mn
Bit rate : 11.2 Mbps
Width : 1 920 pixels
Height : 796 pixels
Display aspect ratio : 2.40:1
Frame rate : 23.976 fps
Color space : YUV
Chroma subsampling : 4:2:0
Bit depth : 8 bits
Scan type : Progressive
Bits/(Pixel*Frame) : 0.306
Stream size : 10.6 GiB (82%)
Title : Harry Potter and the Order of the Phoenix
Writing library : x264 core 64 r985 e256ea1
Encoding settings : cabac=1 / ref=5 / deblock=1:-3:-3 / analyse=0x3:0x113 / me=umh / subme=6 / psy_rd=1.0:0.0 / brdo=1 / mixed_ref=1 / me_range=16 / chroma_me=1 / trellis=0 / 8x8dct=1 / cqm=2 / deadzone=6,4 / chroma_qp_offset=-2 / threads=6 / nr=0 / decimate=0 / mbaff=0 / bframes=16 / b_pyramid=1 / b_adapt=1 / b_bias=0 / direct=1 / wpredb=1 / bime=1 / keyint=250 / keyint_min=25 / scenecut=40(pre) / rc=2pass / bitrate=11208 / ratetol=1.0 / qcomp=0.60 / qpmin=10 / qpmax=51 / qpstep=4 / cplxblur=20.0 / qblur=0.5 / ip_ratio=1.40 / pb_ratio=1.30 / aq=1:1.00
Language : English
Audio #1
ID : 2
Format : AC-3
Format/Info : Audio Coding 3
Mode extension : CM (complete main)
Codec ID : A_AC3
Duration : 2h 18mn
Bit rate mode : Constant
Bit rate : 640 Kbps
Channel(s) : 6 channels
Channel positions : Front: L C R, Side: L R, LFE
Sampling rate : 48.0 KHz
Bit depth : 16 bits
Compression mode : Lossy
Stream size : 633 MiB (5%)
Title : AC3 5.1 @ 640 kbps
Language : Russian
Audio #2
ID : 3
Format : DTS
Format/Info : Digital Theater Systems
Codec ID : A_DTS
Duration : 2h 18mn
Bit rate mode : Constant
Bit rate : 1 510 Kbps
Channel(s) : 6 channels
Channel positions : Front: L C R, Side: L R, LFE
Sampling rate : 48.0 KHz
Bit depth : 24 bits
Compression mode : Lossy
Stream size : 1.46 GiB (11%)
Title : DTS 5.1 @ 1536 kbps
Language : English
Text #1
ID : 4
Format : UTF-8
Codec ID : S_TEXT/UTF8
Codec ID/Info : UTF-8 Plain Text
Language : Russian
Text #2
ID : 5
Format : UTF-8
Codec ID : S_TEXT/UTF8
Codec ID/Info : UTF-8 Plain Text
Title : Только надписи
Language : Russian
Text #3
ID : 6
Format : UTF-8
Codec ID : S_TEXT/UTF8
Codec ID/Info : UTF-8 Plain Text
Language : English
Скриншоты:
-Гарри Поттер и Принц-полукровка / Harry Potter and the Half-Blood Prince (2009) [1080p] BDRip- Русское название: Гарри Поттер и Принц-полукровка
Оригинальное название: Harry Potter and the Half-Blood Prince
Год выпуска: 2009
Страна: США, Великобритания
Жанр: Триллер, Приключения, Фэнтези, Семейный
Перевод: Дублированный
Субтитры: Только Английские

Режиссер: Дэвид Йэтс
Актеры: Дэниэл Рэдклифф, Руперт Гринт, Эмма Уотсон, Хелена Бонем Картер, Дэвид Тьюлис, Джим Броудбент, Эларика Галлахер, Робби Колтрейн, Майкл Гэмбон, Мэгги Смит, Алан Рикман, Бонни Райт
Описание фильма:
Теперь не только мир волшебников, но и мир маглов ощущает на себе все возрастающую силу Волан-де-Морта, а Хогвартс уже никак не назовешь надежным убежищем, каким он был раньше. Гарри подозревает, что в самом замке затаилась некая опасность, но Дамблдор больше сосредоточен на том, чтобы подготовить его к финальной схватке, которая, как он знает, уже не за горами. Вместе они пытаются разгадать секрет бессмертия Волан-де-Морта, а для этого Дамблдор приглашает на должность преподавателя по зельеварению своего старинного друга и коллегу — профессора Горация Слизнорта, который обожает устраивать вечеринки для избранных и гордится своими обширными связями в высших кругах. Но этот бонвиван и не подозревает, что как раз от него Дамблдор надеется заполучить самую важную информацию о крестражах.Тем временем учеников атакуют самые разные враги, а подростковые эмоции хлещут через край. Гарри начинает понимать, что становится все более неравнодушным к Джинни, однако, и Дин Томас тоже. А Лаванда Браун вбила себе в голову, что Рон — тот самый единственный, которого она ждет, да вот только не учла волшебного эффекта шоколадных конфет Ромильды Вейн! Ну и, наконец, Гермиона пылает жгучей ревностью, но старается не показывать своих чувств. Пока романтические отношения расцветают, лишь один ученик остается в стороне. Он твердо намерен оставить свою метку, темную метку. Любовь витает в воздухе, но впереди ждет беда, и Хогвартс, возможно, уже никогда не будет прежним.
Продолжительность: 2:33:30
Качество видео: BDRip
Формат: MKV
Видео: MPEG-4 AVC [H.264], 1920х800, 23.976 fps, 9.0 Mbps
1.Аудио: Russian Dolby AC3, 48000 Hz, 5.1ch, 448 kbps (Дублированый)
2.Аудио: English Dolby AC3, 48000 Hz, 5.1ch, 640 kbps

MediaInfo

Harry.Potter.and.the.Half-Blood.Prince.2009.1080p.BDRip.x264.mkv
Format : Matroska
File size : 10.8 GiB
Duration : 2h 33mn
Overall bit rate : 10.1 Mbps
Movie name : Harry Potter and the Half-Blood Prince
Encoded date : UTC 2010-02-06 19:05:15
Writing application : mkvmerge v3.1.0 ('Happy up here') built on Jan 19 2010 12:09:24
Writing library : libebml v0.7.9 + libmatroska v0.8.1
Video
ID : 1
Format : AVC
Format/Info : Advanced Video Codec
Format profile : High@L4.1
Format settings, CABAC : Yes
Format settings, ReFrames : 5 frames
Codec ID : V_MPEG4/ISO/AVC
Duration : 2h 33mn
Bit rate : 9 000 Kbps
Width : 1 920 pixels
Height : 800 pixels
Display aspect ratio : 2.40:1
Frame rate : 23.976 fps
Color space : YUV
Chroma subsampling : 4:2:0
Bit depth : 8 bits
Scan type : Progressive
Bits/(Pixel*Frame) : 0.244
Stream size : 9.44 GiB (87%)
Title : Harry Potter and the Half-Blood Prince
Writing library : x264 core 79 r1342kMod e8501ef
Encoding settings : cabac=1 / ref=5 / deblock=1:-3:-3 / analyse=0x3:0x113 / me=umh / subme=10 / psy=1 / psy_rd=0.9:0.1 / mixed_ref=1 / me_range=32 / chroma_me=1 / trellis=2 / 8x8dct=1 / cqm=0 / deadzone=21,11 / chroma_qp_offset=-3 / threads=6 / nr=0 / decimate=0 / mbaff=0 / constrained_intra=0 / bframes=5 / b_pyramid=0 / b_adapt=2 / b_bias=0 / direct=3 / wpredb=1 / wpredp=2 / keyint=240 / keyint_min=24 / scenecut=40 / rc_lookahead=240 / rc=2pass / mbtree=1 / bitrate=9000 / ratetol=1.0 / qcomp=0.70 / qpmin=7 / qpmax=30 / qpstep=4 / cplxblur=20.0 / qblur=0.5 / vbv_maxrate=40000 / vbv_bufsize=62500 / ip_ratio=1.00 / aq=2:1.30:1.10
Language : English
Audio #1
ID : 2
Format : AC-3
Format/Info : Audio Coding 3
Mode extension : CM (complete main)
Codec ID : A_AC3
Duration : 2h 33mn
Bit rate mode : Constant
Bit rate : 448 Kbps
Channel(s) : 6 channels
Channel positions : Front: L C R, Side: L R, LFE
Sampling rate : 48.0 KHz
Bit depth : 16 bits
Compression mode : Lossy
Stream size : 492 MiB (4%)
Title : Harry Potter and the Half-Blood Prince
Language : Russian
Audio #2
ID : 3
Format : AC-3
Format/Info : Audio Coding 3
Mode extension : CM (complete main)
Codec ID : A_AC3
Duration : 2h 33mn
Bit rate mode : Constant
Bit rate : 640 Kbps
Channel(s) : 6 channels
Channel positions : Front: L C R, Side: L R, LFE
Sampling rate : 48.0 KHz
Bit depth : 16 bits
Compression mode : Lossy
Stream size : 703 MiB (6%)
Title : Harry Potter and the Half-Blood Prince
Language : English
Text #1
ID : 4
Format : VobSub
Muxing mode : zlib
Codec ID : S_VOBSUB
Codec ID/Info : The same subtitle format used on DVDs
Title : Harry Potter and the Half-Blood Prince
Language : Russian
Text #2
ID : 5
Format : VobSub
Muxing mode : zlib
Codec ID : S_VOBSUB
Codec ID/Info : The same subtitle format used on DVDs
Title : Harry Potter and the Half-Blood Prince (SDH)
Language : English
Скриншоты:
-Гарри Поттер и Дары смерти Часть 1 / Harry Potter and the Deathly Hallows Part 1 (2010) [1080p] BDRip- Русское название: Гарри Поттер и Дары смерти Часть 1
Оригинальное название: Harry Potter and the Deathly Hallows Part 1
Год выпуска: 2010
Страна: США, Великобритания
Жанр: Триллер, Приключения, Фэнтези, Семейный
Перевод: Дублированный
Субтитры: Русские, Английские

Режиссер: Дэвид Йэтс
Актеры: Дэниэл Рэдклифф, Эмма Уотсон, Том Фелтон, Руперт Гринт, Хелена Бонем Картер, Рэйф Файнс, Клеманс Поэзи, Бонни Райт, Рис Иванс, Алан Рикман
Описание фильма:
Гарри Поттера ждёт самое страшное испытание в жизни — смертельная схватка с Волан-де-Мортом. Ждать помощи не от кого — Гарри одинок, как никогда… Друзья и враги Гарри предстают в совершенно неожиданном свете. Граница между Добром и Злом становится всё призрачнее…
Продолжительность: 2:26:05
Качество видео: BDRip
Формат: MKV
Видео: MPEG-4 AVC [H.264], 1920х800, 23.976 fps, 10.0 Mbps
1.Аудио: Russian Dolby AC3, 48000 Hz, 5.1ch, 640 kbps (Дублированый)
2.Аудио: English DTS, 48000 Hz, 5.1ch, 1510 kbps

MediaInfo

Harry.Potter.and.the.Deathly.Hallows.Part.1.2010.1080p.DBRip.mkv
Format : Matroska
File size : 12.4 GiB
Duration : 2h 26mn
Overall bit rate : 12.1 Mbps
Encoded date : UTC 2011-04-14 12:05:08
Writing application : mkvmerge v3.3.0 ('Language') built on Mar 24 2010 14:59:24
Writing library : libebml v0.8.0 + libmatroska v0.9.0
Video
ID : 1
Format : AVC
Format/Info : Advanced Video Codec
Format profile : High@L4.1
Format settings, CABAC : Yes
Format settings, ReFrames : 5 frames
Codec ID : V_MPEG4/ISO/AVC
Duration : 2h 26mn
Bit rate : 10 000 Kbps
Width : 1 920 pixels
Height : 800 pixels
Display aspect ratio : 2.40:1
Frame rate : 23.976 fps
Color space : YUV
Chroma subsampling : 4:2:0
Bit depth : 8 bits
Scan type : Progressive
Bits/(Pixel*Frame) : 0.272
Stream size : 9.95 GiB (80%)
Title : Release for HDClub by doclogan
Writing library : x264 core 114 r1924 08d04a4
Encoding settings : cabac=1 / ref=5 / deblock=1:-3:-3 / analyse=0x3:0x133 / me=umh / subme=10 / psy=1 / psy_rd=1.20:0.00 / mixed_ref=1 / me_range=64 / chroma_me=1 / trellis=2 / 8x8dct=1 / cqm=0 / deadzone=21,11 / fast_pskip=0 / chroma_qp_offset=-2 / threads=18 / sliced_threads=0 / nr=0 / decimate=0 / interlaced=0 / constrained_intra=0 / bframes=9 / b_pyramid=2 / b_adapt=2 / b_bias=0 / direct=3 / weightb=1 / open_gop=0 / weightp=2 / keyint=250 / keyint_min=23 / scenecut=40 / intra_refresh=0 / rc=2pass / mbtree=0 / bitrate=10000 / ratetol=1.0 / qcomp=0.60 / qpmin=0 / qpmax=69 / qpstep=4 / cplxblur=20.0 / qblur=0.5 / ip_ratio=1.40 / pb_ratio=1.30 / aq=2:0.50
Language : English
Audio #1
ID : 2
Format : AC-3
Format/Info : Audio Coding 3
Mode extension : CM (complete main)
Codec ID : A_AC3
Duration : 2h 26mn
Bit rate mode : Constant
Bit rate : 640 Kbps
Channel(s) : 6 channels
Channel positions : Front: L C R, Side: L R, LFE
Sampling rate : 48.0 KHz
Bit depth : 16 bits
Compression mode : Lossy
Stream size : 669 MiB (5%)
Title : 640 kbps Дубляж
Language : Russian
Audio #2
ID : 3
Format : DTS
Format/Info : Digital Theater Systems
Codec ID : A_DTS
Duration : 2h 26mn
Bit rate mode : Constant
Bit rate : 1 510 Kbps
Channel(s) : 6 channels
Channel positions : Front: L C R, Side: L R, LFE
Sampling rate : 48.0 KHz
Bit depth : 24 bits
Compression mode : Lossy
Delay relative to video : 11ms
Stream size : 1.54 GiB (12%)
Title : DTS 5.1 @ 1.5 Mbps
Language : English
Text #1
ID : 4
Format : UTF-8
Codec ID : S_TEXT/UTF8
Codec ID/Info : UTF-8 Plain Text
Title : forced
Language : Russian
Text #2
ID : 5
Format : UTF-8
Codec ID : S_TEXT/UTF8
Codec ID/Info : UTF-8 Plain Text
Title : R5
Language : Russian
Text #3
ID : 6
Format : UTF-8
Codec ID : S_TEXT/UTF8
Codec ID/Info : UTF-8 Plain Text
Language : English
Скриншоты:
-Гарри Поттер и Дары смерти: Часть II / Harry Potter and the Deathly Hallows: Part 2 (2011) BDRip- Русское название: Гарри Поттер и Дары смерти: Часть II
Оригинальное название: Harry Potter and the Deathly Hallows: Part 2
Год выпуска: 2011
Страна: США, Великобритания
Жанр: Триллер, Приключения, Фэнтези, Семейный
Перевод: Дублированный
Субтитры: Русские, Английские

Режиссер:Дэвид Йэтс
Актеры: Дэниэл Рэдклифф, Руперт Гринт, Эмма Уотсон, Рэйф Файнс, Алан Рикман, Хелена Бонем Картер, Том Фелтон, Гари Олдман, Майкл Гэмбон, Мэгги Смит и др.
Описание фильма:
В грандиозной последней главе битва между добрыми и злыми силами мира волшебников перерастает во всеобщую войну. Ставки ещё никогда не были так высоки, а поиск убежища — столь сложен. И быть может именно Гарри Поттеру придется пожертвовать всем в финальном сражении с Волан-де-Мортом. Способен ли наш герой спасти мир? И всё закончится здесь.
Продолжительность: 2:10:26
Качество видео: BDRip
Формат: MKV
Видео: MPEG-4 AVC [H.264], 1920х800, 23.976 fps, 11.3 Mbps
1.Аудио: Russian Dolby AC3, 48000 Hz, 5.1ch, 640 kbps (Дублированый)
2.Аудио: English DTS, 48000 Hz, 5.1ch, 1510 kbps

MediaInfo

Harry.Potter.and.the.Deathly.Hallows.Part.2.2011.1080p.BDRip.x264.mkv
Format : Matroska
File size : 12.3 GiB
Duration : 2h 10mn
Overall bit rate : 13.4 Mbps
Encoded date : UTC 2011-11-10 16:10:12
Writing application : mkvmerge v4.9.1 ('Ich will') сборка от Jul 11 2011 23:53:15
Writing library : libebml v1.2.1 + libmatroska v1.1.1
Video
ID : 1
Format : AVC
Format/Info : Advanced Video Codec
Format profile : High@L4.1
Format settings, CABAC : Yes
Format settings, ReFrames : 5 frames
Muxing mode : Header stripping
Codec ID : V_MPEG4/ISO/AVC
Duration : 2h 10mn
Bit rate : 11.3 Mbps
Width : 1 920 pixels
Height : 800 pixels
Display aspect ratio : 2.40:1
Frame rate : 23.976 fps
Color space : YUV
Chroma subsampling : 4:2:0
Bit depth : 8 bits
Scan type : Progressive
Bits/(Pixel*Frame) : 0.307
Stream size : 10.0 GiB (82%)
Title : Harry Potter And The Deathly Hallows Part 2 (2011)
Writing library : x264 core 119 r2106 07efeb4
Encoding settings : cabac=1 / ref=5 / deblock=1:-3:-3 / analyse=0x3:0x113 / me=umh / subme=10 / psy=1 / psy_rd=1.10:0.00 / mixed_ref=1 / me_range=48 / chroma_me=1 / trellis=2 / 8x8dct=1 / cqm=0 / deadzone=21,11 / fast_pskip=0 / chroma_qp_offset=-4 / threads=12 / sliced_threads=0 / nr=0 / decimate=0 / interlaced=0 / bluray_compat=0 / constrained_intra=0 / bframes=8 / b_pyramid=2 / b_adapt=2 / b_bias=0 / direct=3 / weightb=1 / open_gop=0 / weightp=2 / keyint=250 / keyint_min=23 / scenecut=40 / intra_refresh=0 / rc_lookahead=48 / rc=2pass / mbtree=1 / bitrate=11300 / ratetol=1.0 / qcomp=0.60 / qpmin=0 / qpmax=69 / qpstep=4 / cplxblur=20.0 / qblur=0.5 / ip_ratio=1.40 / aq=1:0.80
Language : English
Audio #1
ID : 2
Format : DTS
Format/Info : Digital Theater Systems
Muxing mode : Header stripping
Codec ID : A_DTS
Duration : 2h 10mn
Bit rate mode : Constant
Bit rate : 1 510 Kbps
Channel(s) : 6 channels
Channel positions : Front: L C R, Side: L R, LFE
Sampling rate : 48.0 KHz
Bit depth : 24 bits
Compression mode : Lossy
Stream size : 1.38 GiB (11%)
Title : DTS 5.1 @ 1536 kbps
Language : English
Audio #2
ID : 5
Format : AC-3
Format/Info : Audio Coding 3
Mode extension : CM (complete main)
Muxing mode : Header stripping
Codec ID : A_AC3
Duration : 2h 10mn
Bit rate mode : Constant
Bit rate : 640 Kbps
Channel(s) : 6 channels
Channel positions : Front: L C R, Side: L R, LFE
Sampling rate : 48.0 KHz
Bit depth : 16 bits
Compression mode : Lossy
Stream size : 597 MiB (5%)
Title : AC3 5.1 @ 640 kbps - Дублированный BD CEE
Language : Russian
Text #1
ID : 3
Format : UTF-8
Codec ID : S_TEXT/UTF8
Codec ID/Info : UTF-8 Plain Text
Title : Russian
Language : Russian
Text #2
ID : 4
Format : UTF-8
Codec ID : S_TEXT/UTF8
Codec ID/Info : UTF-8 Plain Text
Title : English
Language : English
Скриншоты:
Всем приятного просмотра!
Не забудь сказать -
Время раздачи: По возможности!

[Цитировать]



Показать сообщения:    

Текущее время: 20-Янв 13:00

Часовой пояс: UTC + 3


Вы не можете начинать темы
Вы не можете отвечать на сообщения
Вы не можете редактировать свои сообщения
Вы не можете удалять свои сообщения
Вы не можете голосовать в опросах
Вы не можете прикреплять файлы к сообщениям
Вы не можете скачивать файлы

!ВНИМАНИЕ!
Сайт не предоставляет электронные версии произведений, а занимается лишь коллекционированием и каталогизацией ссылок, присылаемых и публикуемых на форуме нашими читателями. Если вы являетесь правообладателем какого-либо представленного материала и не желаете, чтобы ссылка на него находилась в нашем каталоге, свяжитесь с нами, и мы незамедлительно удалим ее. Файлы для обмена на трекере предоставлены пользователями сайта, и администрация не несет ответственности за их содержание. Просьба не заливать файлы, защищенные авторскими правами, а также файлы нелегального содержания!