[ Сегодня идет свободное скачивание без начисления Download ]


Статистика раздачи
Нет
 
   
 
Top  
 
 
-Короли танцпола / Battle of the Year (2013) BDRemux«Весь мир у их ног»- Год выпуска: 2013
Производство: США / Screen Gems, ContraFilm production
Жанр: Музыка
Перевод: Дублированный /iTunes/
Субтитры: Вшитые отключаемые
Язык субтитров: Русский (UTF-8), Английский (UTF-8, PGS), Испанский (PGS), Французкий (PGS)-Дата мировой премьеры: 19 сентября 2013
Дата российской премьеры: 12 декабря 2013, «WDSSPR»
Дата выхода DVD релиза: 25 марта 2014, «Columbia/Sony»
Дата выхода Blu-Ray релиза: 25 марта 2014, «Columbia/Sony»-Режиссер: Бенсон Ли
Продюсер: Бо Флинн, Гленн С. Гейнор, Эми Ло
Актеры: Джош Холлоуэй, Лаз Алонсо, Джош Пек, Кейти Лотц, Крис Браун, Иван Велез, Джон Крус, Джесси Браун, Дэвид Шрейбман, Саванди Уилсон-Описание фильма:
Фильм расскажет про подготовку би-боев, которые в конце года сразятся на финальном соревновании. Главные герои после поражения имеют не так много времени, чтобы подготовиться к встрече с лучшими би-боями мира, которые доминируют на играх уже 10 лет…- -Рейтинг PG-13 - Детям до 13 лет просмотр не желателен-Продолжительность: 01:49:40
Качество видео: BDRemux 1080p (Battle.Of.The.Year.2013.COMPLETE.BluRay-o0o)
Контейнер: MKV
Видеокодек: MPEG-4 AVC/H.264
Битрейт видео: ~24984 Mbps
Размер кадра: 1920x1080
Аудио 1: DTS-HD Master Audio 2682 kbps 5.1 / 48 kHz / 2682 kbps / 24-bit (DTS Core: 5.1 / 48 kHz / 1509 kbps / 24-bit) /Английский/
Аудио 2: Dolby Digital Audio 192 kbps 2.0 / 48 kHz / 192 kbps / Dolby Surround /Комментарий/
Аудио 3: Dolby Digital Audio 384 kbps 2.0 / 48 kHz / 384 kbps /Русский-Дублированный /iTunes//
Сохранены оригинальные чаптеры как на Blu-ray.-

Ошибки в фильме:

  • Когда Рустер с Анисом показывают новое движение, после кувырка в полете земли касается левая нога Рустера, и в этот момент он кричит от боли, но когда команда подбегает к нему, он хватается за правую ногу и в последующих сценах у него также загипсована правая нога.

MediaInfo:

Общее
Уникальный идентификатор : 185782461272208912385475515218313987516 (0x8BC466892C92E8C9BA706F64C049C5BC)
Полное имя : Battle of the Year.2013.BDRemux.mkv
Формат : Matroska
Версия формата : Version 2
Размер файла : 21,7 Гбайт
Продолжительность : 1 ч. 49 м.
Режим общего битрейта : Переменный
Общий поток : 28,3 Мбит/сек
Название фильма : Короли танцпола / Battle of the Year.2013.BDRemux-Feel_1984
Дата кодирования : UTC 2014-01-23 14:36:56
Программа кодирования : mkvmerge v4.3.0 ('Escape from the Island') сборка от Sep 5 2010 10:30:51
Библиотека кодирования : libebml v1.0.0 + libmatroska v1.0.0
Видео
Идентификатор : 1
Формат : AVC
Формат/Информация : Advanced Video Codec
Профиль формата : [email protected]
Параметр CABAC формата : Да
Параметр ReFrames формата : 2 кадра
Параметр GOP формата : M=1, N=10
Режим смешивания : Header stripping
Идентификатор кодека : V_MPEG4/ISO/AVC
Продолжительность : 1 ч. 49 м.
Вид битрейта : Переменный
Ширина : 1920 пикселей
Высота : 1080 пикселей
Соотношение сторон : 16:9
Режим частоты кадров : Постоянный
Частота кадров : 23,976 кадра/сек
Цветовое пространство : YUV
Субдискретизация насыщенности : 4:2:0
Битовая глубина : 8 бит
Тип развёртки : Прогрессивная
Default : Да
Forced : Нет
Аудио #1
Идентификатор : 2
Формат : DTS
Формат/Информация : Digital Theater Systems
Профиль формата : MA / Core
Режим : 16
Параметр Endianness формата : Big
Режим смешивания : Header stripping
Идентификатор кодека : A_DTS
Продолжительность : 1 ч. 49 м.
Вид битрейта : Переменный
Битрейт : Неизвестно / 1509 Кбит/сек
Каналы : 6 каналов
Расположение каналов : Front: L C R, Side: L R, LFE
Частота : 48,0 КГц
Битовая глубина : 24 бит
Метод сжатия : Без потерь / Lossy
Язык : English
Default : Нет
Forced : Нет
Аудио #2
Идентификатор : 3
Формат : AC-3
Формат/Информация : Audio Coding 3
Профиль формата : Dolby Digital
Расширение режима : CM (complete main)
Параметр Endianness формата : Big
Режим смешивания : Header stripping
Идентификатор кодека : A_AC3
Продолжительность : 1 ч. 49 м.
Вид битрейта : Постоянный
Битрейт : 192 Кбит/сек
Каналы : 2 канала
Расположение каналов : Front: L R
Частота : 48,0 КГц
Битовая глубина : 16 бит
Метод сжатия : С потерями
Размер потока : 151 Мбайт (1%)
Язык : English
Default : Нет
Forced : Нет
Аудио #3
Идентификатор : 4
Формат : AC-3
Формат/Информация : Audio Coding 3
Расширение режима : CM (complete main)
Параметр Endianness формата : Big
Режим смешивания : Header stripping
Идентификатор кодека : A_AC3
Продолжительность : 1 ч. 49 м.
Вид битрейта : Постоянный
Битрейт : 384 Кбит/сек
Каналы : 2 канала
Расположение каналов : Front: L R
Частота : 48,0 КГц
Битовая глубина : 16 бит
Метод сжатия : С потерями
Размер потока : 301 Мбайт (1%)
Заголовок : Дублированный /iTunes/
Язык : Russian
Default : Да
Forced : Нет
Текст #1
Идентификатор : 5
Формат : UTF-8
Идентификатор кодека : S_TEXT/UTF8
Идентификатор кодека/Информация : UTF-8 Plain Text
Язык : Russian
Default : Да
Forced : Нет
Текст #2
Идентификатор : 6
Формат : UTF-8
Идентификатор кодека : S_TEXT/UTF8
Идентификатор кодека/Информация : UTF-8 Plain Text
Язык : English
Default : Нет
Forced : Нет
Текст #3
Идентификатор : 7
Формат : PGS
Режим смешивания : zlib
Идентификатор кодека : S_HDMV/PGS
Идентификатор кодека/Информация : The same subtitle format used on BDs/HD-DVDs
Язык : English
Default : Нет
Forced : Нет
Текст #4
Идентификатор : 8
Формат : PGS
Режим смешивания : zlib
Идентификатор кодека : S_HDMV/PGS
Идентификатор кодека/Информация : The same subtitle format used on BDs/HD-DVDs
Язык : English
Default : Нет
Forced : Нет
Текст #5
Идентификатор : 9
Формат : PGS
Режим смешивания : zlib
Идентификатор кодека : S_HDMV/PGS
Идентификатор кодека/Информация : The same subtitle format used on BDs/HD-DVDs
Язык : Spanish
Default : Нет
Forced : Нет
Текст #6
Идентификатор : 10
Формат : PGS
Режим смешивания : zlib
Идентификатор кодека : S_HDMV/PGS
Идентификатор кодека/Информация : The same subtitle format used on BDs/HD-DVDs
Язык : French
Default : Нет
Forced : Нет
Меню
00:00:00.000 : :00:00:00.000
00:06:28.054 : :00:06:28.054
00:14:22.987 : :00:14:22.987
00:21:33.375 : :00:21:33.375
00:27:31.149 : :00:27:31.149
00:35:14.904 : :00:35:14.904
00:40:18.833 : :00:40:18.833
00:47:31.014 : :00:47:31.014
00:55:41.087 : :00:55:41.087
01:00:00.054 : :01:00:00.054
01:04:57.685 : :01:04:57.685
01:12:06.071 : :01:12:06.071
01:21:08.446 : :01:21:08.446
01:29:04.756 : :01:29:04.756
01:33:01.367 : :01:33:01.367
01:39:48.440 : :01:39:48.440

Bitrate Viewer:

-Скриншоты:

[Цитировать]



Показать сообщения:    

Текущее время: 04-Дек 02:56

Часовой пояс: UTC + 3


Вы не можете начинать темы
Вы не можете отвечать на сообщения
Вы не можете редактировать свои сообщения
Вы не можете удалять свои сообщения
Вы не можете голосовать в опросах
Вы не можете прикреплять файлы к сообщениям
Вы не можете скачивать файлы

!ВНИМАНИЕ!
Сайт не предоставляет электронные версии произведений, а занимается лишь коллекционированием и каталогизацией ссылок, присылаемых и публикуемых на форуме нашими читателями. Если вы являетесь правообладателем какого-либо представленного материала и не желаете, чтобы ссылка на него находилась в нашем каталоге, свяжитесь с нами, и мы незамедлительно удалим ее. Файлы для обмена на трекере предоставлены пользователями сайта, и администрация не несет ответственности за их содержание. Просьба не заливать файлы, защищенные авторскими правами, а также файлы нелегального содержания!