[ Сегодня идет свободное скачивание без начисления Download ]


Статистика раздачи
Нет
 
   
 
Top  
 
 
-Грязь / Filth (2013) BDRip [1080p]- Год выпуска: 2013
Производство: Великобритания
Жанр: Криминал, Драма, Комедия
Перевод: Дублированный (лицензия)
Субтитры: Вшитые отключаемые
Язык субтитров: Английский
Дата мировой премьеры: 16 сентября 2013
Дата российской премьеры: 28 ноября 2013, «Cinema Prestige»
Режиссер: Джон С. Бейрд
Продюсер: Марк Эмин, Кристиан Ангермейер, Джон С. Бейрд
Актеры: Джеймс МакЭвой, Джейми Белл, Джим Бродбент, Имоджен Путс, Йен де Кестекер, Джоанн Фроггатт, Иман Эллиотт, Ширли Хендерсон, Эдди Марсан, Мартин Компстон
Описание фильма:Главный герой — продажный шотландский полицейский Брюс Робертсон, помешанный на сексе и кокаине. Ему бы надо расследовать убийство, но ему сильно мешают собственные странности, привычка разыгрывать коллег и беготня за девушками. За Робертсоном присматривают его напарник Рэй Леннокс и начальник Боб Тоал.
Продолжительность: 01:37:22
Качество видео: BDRip [1080p]
Видеокодек: MPEG-4 AVC/H.264
Битрейт видео: ~10300 kb/s
Размер кадра: 1920x816
Аудио #1: Русский: AC-3, 48.0 KHz, 6 ch, 384 Kbps, CBR
Aудио #2: Aнглийский: DTS, 48.0 KHz, 6 ch, 768 Kbps, CBR
Aудио #3: Aнглийский: AAC LC, 48.0 KHz, 2 ch
Сэмпл: Скачать

Mediainfo

Общее
Уникальный идентификатор : 236150280754476813639760936894656619904 (0xB1A8E3C3E82197D783793BF2773B2580)
Полное имя : E:\Фильмы\Grjaz.2013.D.BDRip.1080p.mkv
Формат : Matroska
Версия формата : Version 2
Размер файла : 8,03 Гбайт
Продолжительность : 1 ч. 37 м.
Общий поток : 11,8 Мбит/сек
Дата кодирования : UTC 2014-01-22 21:43:34
Программа кодирования : mkvmerge v6.7.0 ('Back to the Ground') 32bit built on Jan 8 2014 15:03:17
Библиотека кодирования : libebml v1.3.0 + libmatroska v1.4.1
Видео
Идентификатор : 2
Формат : AVC
Формат/Информация : Advanced Video Codec
Профиль формата : High@L4.1
Параметр CABAC формата : Да
Параметр ReFrames формата : 5 кадров
Идентификатор кодека : V_MPEG4/ISO/AVC
Продолжительность : 1 ч. 37 м.
Ширина : 1920 пикселей
Высота : 816 пикселей
Соотношение сторон : 2,35:1
Режим частоты кадров : Постоянный
Частота кадров : 24,000 кадра/сек
Цветовое пространство : YUV
Субдискретизация насыщенности : 4:2:0
Битовая глубина : 8 бит
Тип развёртки : Прогрессивная
Язык : English
Default : Да
Forced : Нет
Аудио #1
Идентификатор : 1
Формат : AC-3
Формат/Информация : Audio Coding 3
Расширение режима : CM (complete main)
Параметр Endianness формата : Big
Идентификатор кодека : A_AC3
Продолжительность : 1 ч. 37 м.
Вид битрейта : Постоянный
Битрейт : 384 Кбит/сек
Каналы : 6 каналов
Расположение каналов : Front: L C R, Side: L R, LFE
Частота : 48,0 КГц
Битовая глубина : 16 бит
Метод сжатия : С потерями
Размер потока : 267 Мбайт (3%)
Язык : Russian
Default : Да
Forced : Нет
Аудио #2
Идентификатор : 3
Формат : DTS
Формат/Информация : Digital Theater Systems
Режим : 16
Параметр Endianness формата : Big
Идентификатор кодека : A_DTS
Продолжительность : 1 ч. 37 м.
Вид битрейта : Постоянный
Битрейт : 768 Кбит/сек
Каналы : 6 каналов
Расположение каналов : Front: L C R, Side: L R, LFE
Частота : 48,0 КГц
Битовая глубина : 24 бит
Метод сжатия : С потерями
Размер потока : 535 Мбайт (7%)
Язык : English
Default : Нет
Forced : Нет
Аудио #3
Идентификатор : 4
Формат : AAC
Формат/Информация : Advanced Audio Codec
Профиль формата : LC
Идентификатор кодека : A_AAC
Продолжительность : 1 ч. 37 м.
Каналы : 2 канала
Расположение каналов : Front: L R
Частота : 48,0 КГц
Метод сжатия : С потерями
Задержка видео : 9 мс.
Язык : English
Default : Нет
Forced : Нет
Текст
Идентификатор : 5
Формат : PGS
Режим смешивания : zlib
Идентификатор кодека : S_HDMV/PGS
Идентификатор кодека/Информация : The same subtitle format used on BDs/HD-DVDs
Язык : English
Default : Нет
Forced : Нет
Меню
00:00:00.000 : en:00:00:00.000
00:08:15.500 : en:00:08:15.500
00:15:56.792 : en:00:15:56.792
00:24:38.667 : en:00:24:38.667
00:32:36.125 : en:00:32:36.125
00:40:55.917 : en:00:40:55.917
00:48:00.458 : en:00:48:00.458
00:56:09.000 : en:00:56:09.000
01:03:43.833 : en:01:03:43.833
01:14:07.708 : en:01:14:07.708
01:19:14.958 : en:01:19:14.958
01:28:19.167 : en:01:28:19.167
Скриншоты:

[Цитировать]



Показать сообщения:    

Текущее время: 09-Дек 06:44

Часовой пояс: UTC + 3


Вы не можете начинать темы
Вы не можете отвечать на сообщения
Вы не можете редактировать свои сообщения
Вы не можете удалять свои сообщения
Вы не можете голосовать в опросах
Вы не можете прикреплять файлы к сообщениям
Вы не можете скачивать файлы

!ВНИМАНИЕ!
Сайт не предоставляет электронные версии произведений, а занимается лишь коллекционированием и каталогизацией ссылок, присылаемых и публикуемых на форуме нашими читателями. Если вы являетесь правообладателем какого-либо представленного материала и не желаете, чтобы ссылка на него находилась в нашем каталоге, свяжитесь с нами, и мы незамедлительно удалим ее. Файлы для обмена на трекере предоставлены пользователями сайта, и администрация не несет ответственности за их содержание. Просьба не заливать файлы, защищенные авторскими правами, а также файлы нелегального содержания!