[ Сегодня идет свободное скачивание без начисления Download ]


Статистика раздачи
Нет
 
   
 
Top  
 
 
-План побега / Escape Plan (2013) BDRip
«Из самой надежной тюрьмы в одиночку убежать невозможно»
- Год выпуска: 2013
Производство: США | Summit Entertainment, Emmett/Furla Films, Mark Canton Productions
Жанр: Боевик, Триллер, Детектив
Перевод: Дублированный (Чистый звук) + профессиональный многоголосый
Субтитры: Вшитые отключаемые
Язык субтитров: Английский-Дата мировой премьеры: 18 июля 2013 (США, Comic-Con, Сан-Диего)
Дата российской премьеры: 17 октября 2013, «Централ Партнершип»-Режиссер: Микаэль Хофстрём-Продюсер: Брандт Андерсон, Александр Буайе, Робби Бреннер-Актеры: Сильвестр Сталлоне, Арнольд Шварценеггер, Джеймс Кэвизел, Фифти Сент, Винни Джонс, Винсент Д’Онофрио, Эми Райан, Фаран Таир, Сэм Нил, Мэтт Джералд ...-Роли дублировали: Владимир Антоник, Сергей Чихачев, Василий Дахненко, Даниил Эльдаров, Алексей Колган ...-Описание фильма:
Один из самых выдающихся мировых специалистов по системам безопасности соглашается на последнюю рисковую операцию: сбежать из суперсекретной высокотехнологичной тюрьмы, которую называют «Гробницей». Преданный Рэй Бреслин вынужден прибегнуть к помощи напарника — заключенного Эмиля Ротмайера, чтобы разработать отчаянный и практически неосуществимый план побега из самой защищенной тюрьмы в мире!-
Продолжительность: 01:55:35
Качество видео: BDRip 720p [PHD]
Видеокодек: MPEG-4 AVC/H.264
Битрейт видео: ~ 4894 Кбит/сек
Размер кадра: 1280 x 534 (2.397) at 23.976 fps : 0.299 Bits/Pixel
Аудио #1: AC3 384 Кбит/сек (6ch), 48,0 КГц, 16 бит [Русский, дубляж]
Аудио #2: AC3 192 Кбит/сек (2ch), 48,0 КГц, 16 бит [Русский, MVO]
Аудио #3: DTS 1510 Кбит/сек (6ch), 48,0 КГц, 24 бит [Английский]
Аудио #4: AC3 192 Кбит/сек (2ch), 48,0 КГц, 16 бит [Английский-комментарии]
Дополнительно: Сохранены оригинальные чаптеры как на Blu-ray
Релиз:

Знаете ли вы, что...

• Во время сцены в карцере герой Шварценеггера обращается к Господу и смотрит на Кэвизела, который исполнял главную роль в фильме «Страсти Христовы» (2004).
• Сильвестр Сталлоне повредил сухожилие правой ноги во время съёмок сцены боя.
• Съёмки проходили в Новом Орлеане, Луизиане и Лос-Анджелесе.
• Предполагалось, что фильм поставит Антуан Фукуа, а главную роль сыграет Брюс Уиллис.
• Идея о том, чтобы вместе сняться в фильме, обсуждалась между Сильвестром Сталлоне и Арнольдом Шварценеггером на протяжении многих лет, еще с середины 1980-х. Были написаны различные версии сценария, но, по словам Шварценнегера, их со Сталлоне съемочные графики не совпадали. После того как Шварценнегер занял пост губернатора, а затем исполнил эпизодическую роль в фильме «Неудержимые» (2010), они вернулись к идее о совместной работе.
• Это второй раз, когда Джеймс Кэвизел сыграл злодея.

Ошибки в фильме

• Когда Рэй считал до трёхсот в тюрьме Колорадо, отсчитывая 5 минут, то можно было заметить, что он считает намного медленнее, чем длится 1 секунда. В это же время все камеры наблюдения показывали одно и то же время 15:59, а через несколько секунд другая камера показывала еще время 15:56.

MediaInfo:

Уникальный идентификатор                 : 217256022030657559501758273270905115354 (0xA371FCE342D96542895A33DC520D12DA)
Полное имя                               : H:\BDRip'ы\План побега Escape Plan 2013 BluRay 720-1080p DTS x264-CHD\Plan.pobega.2013.BDRip.720p.NNM-CLUB.mkv
Формат                                   : Matroska
Версия формата                           : Version 2
Размер файла                             : 5,91 Гбайт
Продолжительность                        : 1 ч. 55 м.
Общий поток                              : 7317 Кбит/сек
Название фильма                          : Escape.Plan.2013.720p.BluRay.DTS.x264-PHD
Дата кодирования                         : UTC 2014-01-23 08:46:23
Программа кодирования                    : mkvmerge v2.9.9 ('Tutu') built on Nov 25 2009 21:13:32
Библиотека кодирования                   : libebml v0.7.9 + libmatroska v0.8.1
Видео
Идентификатор                            : 1
Формат                                   : AVC
Формат/Информация                        : Advanced Video Codec
Профиль формата                          : [url=mailto:High@L4.1]High@L4.1[/url]
Параметр CABAC формата                   : Да
Параметр ReFrames формата                : 5 кадров
Идентификатор кодека                     : V_MPEG4/ISO/AVC
Продолжительность                        : 1 ч. 55 м.
Битрейт                                  : 4894 Кбит/сек
Ширина                                   : 1280 пикселей
Высота                                   : 534 пикселя
Соотношение сторон                       : 2,40:1
Режим частоты кадров                     : Постоянный
Частота кадров                           : 23,976 кадра/сек
Цветовое пространство                    : YUV
Субдискретизация насыщенности            : 4:2:0
Битовая глубина                          : 8 бит
Тип развёртки                            : Прогрессивная
Бит/(Пиксели*Кадры)                      : 0.299
Размер потока                            : 3,95 Гбайт (67%)
Заголовок                                : -=Release for NNM-CLUB.RU=-
Язык                                     : English
Default                                  : Нет
Forced                                   : Нет
Аудио #1
Идентификатор                            : 2
Формат                                   : AC-3
Формат/Информация                        : Audio Coding 3
Расширение режима                        : CM (complete main)
Параметр Endianness формата              : Big
Идентификатор кодека                     : A_AC3
Продолжительность                        : 1 ч. 55 м.
Вид битрейта                             : Постоянный
Битрейт                                  : 384 Кбит/сек
Каналы                                   : 6 каналов
Расположение каналов                     : Front: L C R, Side: L R, LFE
Частота                                  : 48,0 КГц
Битовая глубина                          : 16 бит
Метод сжатия                             : С потерями
Размер потока                            : 317 Мбайт (5%)
Заголовок                                : AC3.384Kbps (6ch) Russian (Дубляж)
Язык                                     : Russian
Default                                  : Да
Forced                                   : Нет
Аудио #2
Идентификатор                            : 3
Формат                                   : AC-3
Формат/Информация                        : Audio Coding 3
Расширение режима                        : CM (complete main)
Параметр Endianness формата              : Big
Идентификатор кодека                     : A_AC3
Продолжительность                        : 1 ч. 55 м.
Вид битрейта                             : Постоянный
Битрейт                                  : 192 Кбит/сек
Каналы                                   : 2 канала
Расположение каналов                     : Front: L R
Частота                                  : 48,0 КГц
Битовая глубина                          : 16 бит
Метод сжатия                             : С потерями
Размер потока                            : 159 Мбайт (3%)
Заголовок                                : AC3.192.Kbps (2ch) Russian (MVO)
Язык                                     : Russian
Default                                  : Нет
Forced                                   : Нет
Аудио #3
Идентификатор                            : 4
Формат                                   : DTS
Формат/Информация                        : Digital Theater Systems
Режим                                    : 16
Параметр Endianness формата              : Big
Идентификатор кодека                     : A_DTS
Продолжительность                        : 1 ч. 55 м.
Вид битрейта                             : Постоянный
Битрейт                                  : 1509 Кбит/сек
Каналы                                   : 6 каналов
Расположение каналов                     : Front: L C R, Side: L R, LFE
Частота                                  : 48,0 КГц
Битовая глубина                          : 24 бит
Метод сжатия                             : С потерями
Задержка видео                           : 11 мс.
Размер потока                            : 1,22 Гбайт (21%)
Заголовок                                : DTS.1509.Kbps (6ch) English
Язык                                     : English
Default                                  : Нет
Forced                                   : Нет
Аудио #4
Идентификатор                            : 5
Формат                                   : AC-3
Формат/Информация                        : Audio Coding 3
Расширение режима                        : CM (complete main)
Параметр Endianness формата              : Big
Идентификатор кодека                     : A_AC3
Продолжительность                        : 1 ч. 55 м.
Вид битрейта                             : Постоянный
Битрейт                                  : 192 Кбит/сек
Каналы                                   : 2 канала
Расположение каналов                     : Front: L R
Частота                                  : 48,0 КГц
Битовая глубина                          : 16 бит
Метод сжатия                             : С потерями
Размер потока                            : 159 Мбайт (3%)
Заголовок                                : AC3.192.Kbps (2ch) English (Commentary With Director Mikael Hafstrom And Writer Miles Chapman)
Язык                                     : English
Default                                  : Нет
Forced                                   : Нет
Текст
Идентификатор                            : 6
Формат                                   : UTF-8
Идентификатор кодека                     : S_TEXT/UTF8
Идентификатор кодека/Информация          : UTF-8 Plain Text
Заголовок                                : English (Full)
Язык                                     : English
Default                                  : Нет
Forced                                   : Нет
Меню
00:00:00.000                             : en:00:00:00.000
00:06:33.643                             : en:00:06:33.643
00:15:40.940                             : en:00:15:40.940
00:19:50.439                             : en:00:19:50.439
00:26:22.706                             : en:00:26:22.706
00:33:08.111                             : en:00:33:08.111
00:39:14.310                             : en:00:39:14.310
00:45:41.697                             : en:00:45:41.697
00:50:07.171                             : en:00:50:07.171
00:58:59.494                             : en:00:58:59.494
01:06:44.834                             : en:01:06:44.834
01:13:51.135                             : en:01:13:51.135
01:21:04.359                             : en:01:21:04.359
01:27:58.523                             : en:01:27:58.523
01:35:35.188                             : en:01:35:35.188
01:42:14.879                             : en:01:42:14.879
Скриншоты:




[Цитировать]



Показать сообщения:    

Текущее время: 10-Дек 15:47

Часовой пояс: UTC + 3


Вы не можете начинать темы
Вы не можете отвечать на сообщения
Вы не можете редактировать свои сообщения
Вы не можете удалять свои сообщения
Вы не можете голосовать в опросах
Вы не можете прикреплять файлы к сообщениям
Вы не можете скачивать файлы

!ВНИМАНИЕ!
Сайт не предоставляет электронные версии произведений, а занимается лишь коллекционированием и каталогизацией ссылок, присылаемых и публикуемых на форуме нашими читателями. Если вы являетесь правообладателем какого-либо представленного материала и не желаете, чтобы ссылка на него находилась в нашем каталоге, свяжитесь с нами, и мы незамедлительно удалим ее. Файлы для обмена на трекере предоставлены пользователями сайта, и администрация не несет ответственности за их содержание. Просьба не заливать файлы, защищенные авторскими правами, а также файлы нелегального содержания!