[ Сегодня идет свободное скачивание без начисления Download ]


Статистика раздачи
Нет
 
   
 
Top  
 
 
-Астрал: Глава 2 / Insidious: Chapter 2
«Он вернулся за тобой»
- Год выпуска: 2013
Производство: США / Blumhouse Productions, Entertainment One, FilmDistrict
Жанр: Ужасы, Триллер
Перевод: Профессиональный (полное дублирование) [Лицензия]
Субтитры: Отсутствуют
Навигация по главам: Есть (16)
Дата мировой премьеры: 13 сентября 2013
Дата российской премьеры: 3 октября 2013, «WDSSPR»
Дата выхода DVD/Blu-Ray релиза: 28 января 2014, «Columbia/Sony»
Режиссер: Джеймс Ван
Продюсер: Джейсон Блум, Орен Пели, Жанетт Брилл
Актеры: Патрик Уилсон, Роуз Бирн, Лин Шэй, Тай Симпкинс, Барбара Херши, Стив Култер, Ли Уоннелл, Энгус Сэмпсон, Эндрю Эстор, Хэнк Харрис
Описание фильма:
Семья Ламберт стремится раскрыть тайну, из-за которой они оказались в опасной связи с миром духов…

Продолжительность: 01:45:52
Качество видео: HDRip-AVC
Видеокодек: MPEG-4 AVC/H.264
Битрейт видео: ~1507 Kbps
Размер кадра: 1072x448
Аудиокодек: AC3 5.1
Битрейт аудио: 448 Kbps

MediaInfo:

Общее
Уникальный идентификатор                 : 190408119453017373872085522824243689546 (0x8F3F451791F8F9E490CAA10FBBFBB84A)
Полное имя                               : Insidious.Chapter.II.2013.HDRip-AVC.1,45GB.NNM-CLUB.mkv
Формат                                   : Matroska
Версия формата                           : Version 4 / Version 2
Размер файла                             : 1,45 Гбайт
Продолжительность                        : 1 ч. 45 м.
Общий поток                              : 1957 Кбит/сек
Название фильма                          : Release for NNM-CLUB
Дата кодирования                         : UTC 2014-01-22 16:16:26
Программа кодирования                    : mkvmerge v6.7.0 ('Back to the Ground') 64bit built on Jan  8 2014 15:10:52
Библиотека кодирования                   : libebml v1.3.0 + libmatroska v1.4.1
Attachment                               : Yes
Видео
Идентификатор                            : 1
Формат                                   : AVC
Формат/Информация                        : Advanced Video Codec
Профиль формата                          : [url=mailto:[email protected]][email protected][/url]
Параметр CABAC формата                   : Да
Параметр ReFrames формата                : 10 кадров
Идентификатор кодека                     : V_MPEG4/ISO/AVC
Продолжительность                        : 1 ч. 45 м.
Битрейт                                  : 1507 Кбит/сек
Ширина                                   : 1072 пикселя
Высота                                   : 448 пикселей
Соотношение сторон                       : 2,40:1
Режим частоты кадров                     : Постоянный
Частота кадров                           : 23,976 кадра/сек
Цветовое пространство                    : YUV
Субдискретизация насыщенности            : 4:2:0
Битовая глубина                          : 8 бит
Тип развёртки                            : Прогрессивная
Бит/(Пиксели*Кадры)                      : 0.131
Размер потока                            : 1,09 Гбайт (75%)
Заголовок                                : Астрал: Глава 2 / Insidious: Chapter 2 (2013)
Библиотека кодирования                   : x264 core 133 r2334 a3ac64b
Настройки программы                      : cabac=1 / ref=10 / deblock=1:-1:-1 / analyse=0x3:0x133 / me=umh / subme=11 / psy=1 / psy_rd=1.00:0.00 / mixed_ref=1 / me_range=48 / chroma_me=1 / trellis=2 / 8x8dct=1 / cqm=0 / deadzone=21,11 / fast_pskip=0 / chroma_qp_offset=-2 / threads=3 / lookahead_threads=1 / sliced_threads=0 / nr=0 / decimate=1 / interlaced=0 / bluray_compat=0 / constrained_intra=0 / bframes=12 / b_pyramid=2 / b_adapt=2 / b_bias=0 / direct=1 / weightb=1 / open_gop=0 / weightp=2 / keyint=240 / keyint_min=23 / scenecut=40 / intra_refresh=0 / rc_lookahead=40 / rc=2pass / mbtree=1 / bitrate=1507 / ratetol=1.0 / qcomp=0.60 / qpmin=0 / qpmax=69 / qpstep=4 / cplxblur=20.0 / qblur=0.5 / vbv_maxrate=50000 / vbv_bufsize=62500 / nal_hrd=none / ip_ratio=1.40 / aq=1:1.00
Default                                  : Да
Forced                                   : Нет
Аудио
Идентификатор                            : 2
Формат                                   : AC-3
Формат/Информация                        : Audio Coding 3
Расширение режима                        : CM (complete main)
Параметр Endianness формата              : Big
Идентификатор кодека                     : A_AC3
Продолжительность                        : 1 ч. 45 м.
Вид битрейта                             : Постоянный
Битрейт                                  : 448 Кбит/сек
Каналы                                   : 6 каналов
Расположение каналов                     : Front: L C R, Side: L R, LFE
Частота                                  : 48,0 КГц
Битовая глубина                          : 16 бит
Метод сжатия                             : С потерями
Размер потока                            : 339 Мбайт (23%)
Заголовок                                : Русский дублированный (лицензия) | DD 5.1 @ 448 kbps - BD CEE
Язык                                     : Russian
Default                                  : Да
Forced                                   : Да
Меню
00:00:00.000                             : en:00:00:00.000
00:12:45.890                             : en:00:12:45.890
00:22:22.967                             : en:00:22:22.967
00:26:03.228                             : en:00:26:03.228
00:30:09.224                             : en:00:30:09.224
00:37:31.583                             : en:00:37:31.583
00:42:46.314                             : en:00:42:46.314
00:48:49.468                             : en:00:48:49.468
00:56:11.702                             : en:00:56:11.702
00:59:41.661                             : en:00:59:41.661
01:05:57.579                             : en:01:05:57.579
01:14:33.344                             : en:01:14:33.344
01:21:37.351                             : en:01:21:37.351
01:27:31.413                             : en:01:27:31.413
01:33:33.858                             : en:01:33:33.858
01:38:59.433                             : en:01:38:59.433

[Цитировать]



Показать сообщения:    

Текущее время: 04-Дек 09:11

Часовой пояс: UTC + 3


Вы не можете начинать темы
Вы не можете отвечать на сообщения
Вы не можете редактировать свои сообщения
Вы не можете удалять свои сообщения
Вы не можете голосовать в опросах
Вы не можете прикреплять файлы к сообщениям
Вы не можете скачивать файлы

!ВНИМАНИЕ!
Сайт не предоставляет электронные версии произведений, а занимается лишь коллекционированием и каталогизацией ссылок, присылаемых и публикуемых на форуме нашими читателями. Если вы являетесь правообладателем какого-либо представленного материала и не желаете, чтобы ссылка на него находилась в нашем каталоге, свяжитесь с нами, и мы незамедлительно удалим ее. Файлы для обмена на трекере предоставлены пользователями сайта, и администрация не несет ответственности за их содержание. Просьба не заливать файлы, защищенные авторскими правами, а также файлы нелегального содержания!