[ Сегодня идет свободное скачивание без начисления Download ]


Статистика раздачи
Нет
 
   
 
Top  
 
 
-Короли танцпола / Battle of the Year (2013) BDRip
«Весь мир у их ног»
- Год выпуска: 2013
Производство: США | Contrafilm
Жанр: Музыкальный
Перевод: Дублированный (iTunes)
Субтитры: Вшитые отключаемые
Язык субтитров: Русский, Английский (Full, SDH, SDH-Colored)-Дата мировой премьеры: 19 сентября 2013 (Израиль, Ливан)
Дата российской премьеры: 12 декабря 2013, «WDSSPR»
Дата выхода DVD релиза: 25 марта 2014, «Columbia/Sony»
Дата выхода Blu-Ray релиза: 25 марта 2014, «Columbia/Sony»-Режиссер: Бенсон Ли-Продюсер: Бо Флинн, Гленн С. Гейнор, Эми Ло-Актеры: Джош Холлоуэй, Лас Алонсо, Джош Пек, Кейти Лотц, Крис Браун, Иван «Флипз» Велез, Джон «Ду Нок» Крус, Джесси «Каспер» Браун, Дэвид Шрейбман, Саванди Уилсон ...-Роли дублировали: Валерий Соловьев, Олег Фёдоров, Игорь Сергеев, Ирина Горячева, Александр Быковский, Александр Майоров, Борис Хасанов, Глеб Гаврилов ...-Описание фильма:
Фильм расскажет про подготовку би-боев, которые в конце года сразятся на финальном соревновании. Главные герои после поражения имеют не так много времени, чтобы подготовиться к встрече с лучшими би-боями мира, которые доминируют на играх уже 10 лет…
Продолжительность: 01:49:40
Качество видео: BDRip 720p [HDWinG]
Видеокодек: MPEG-4 AVC/H.264
Битрейт видео: ~ 6000 Кбит/сек
Размер кадра: 1280 x 694 (1.844) at 23.976 fps : 0.0.282 Bits/Pixel
Аудио #1: AC3 384 Кбит/сек (2ch), 48,0 КГц, 16 бит [Русский, дубляж]
Аудио #2: DTS 1510 Кбит/сек (6ch), 48,0 КГц, 24 бит [Английский]
Дополнительно: Сохранены оригинальные чаптеры как на Blu-ray

Ошибки в фильме

• Когда Рустер с Анисом показывают новое движение, после кувырка в полете земли касается левая нога Рустера, и в этот момент он кричит от боли, но когда команда подбегает к нему, он хватается за правую ногу и в последующих сценах у него также загипсована правая нога.

MediaInfo:

Уникальный идентификатор                 : 200583912818403283447997486869877064898 (0x96E70E709E81ED8381EA6DF0189F84C2)
Полное имя                               : H:\Koroli.tantspola.2013.D.BDRip.720p.mkv
Формат                                   : Matroska
Версия формата                           : Version 2
Размер файла                             : 6,05 Гбайт
Продолжительность                        : 1 ч. 49 м.
Общий поток                              : 7896 Кбит/сек
Название фильма                          : Battle.of.the.Year.The.Dream.Team.2013.720p.BluRay.x264.DTS-HDWinG
Дата кодирования                         : UTC 2014-01-23 16:02:18
Программа кодирования                    : mkvmerge v2.9.9 ('Tutu') built on Nov 25 2009 21:13:32
Библиотека кодирования                   : libebml v0.7.9 + libmatroska v0.8.1
Видео
Идентификатор                            : 1
Формат                                   : AVC
Формат/Информация                        : Advanced Video Codec
Профиль формата                          : [url=mailto:High@L4.1]High@L4.1[/url]
Параметр CABAC формата                   : Да
Параметр ReFrames формата                : 9 кадров
Идентификатор кодека                     : V_MPEG4/ISO/AVC
Продолжительность                        : 1 ч. 49 м.
Битрейт                                  : 6000 Кбит/сек
Ширина                                   : 1280 пикселей
Высота                                   : 694 пикселя
Соотношение сторон                       : 1,85:1
Режим частоты кадров                     : Постоянный
Частота кадров                           : 23,976 кадра/сек
Цветовое пространство                    : YUV
Субдискретизация насыщенности            : 4:2:0
Битовая глубина                          : 8 бит
Тип развёртки                            : Прогрессивная
Бит/(Пиксели*Кадры)                      : 0.282
Размер потока                            : 4,48 Гбайт (
Библиотека кодирования                   : x264 core 129 r2230 1cffe9f
Настройки программы                      : cabac=1 / ref=9 / deblock=1:-3:-3 / analyse=0x3:0x133 / me=umh / subme=10 / psy=1 / psy_rd=1.05:0.00 / mixed_ref=1 / me_range=48 / chroma_me=1 / trellis=2 / 8x8dct=1 / cqm=0 / deadzone=21,11 / fast_pskip=0 / chroma_qp_offset=-2 / threads=12 / lookahead_threads=2 / sliced_threads=0 / nr=0 / decimate=0 / interlaced=0 / bluray_compat=0 / constrained_intra=0 / bframes=8 / b_pyramid=2 / b_adapt=2 / b_bias=0 / direct=3 / weightb=1 / open_gop=0 / weightp=2 / keyint=360 / keyint_min=2 / scenecut=40 / intra_refresh=0 / rc_lookahead=240 / rc=2pass / mbtree=1 / bitrate=6000 / ratetol=1.0 / qcomp=0.70 / qpmin=0 / qpmax=69 / qpstep=4 / cplxblur=20.0 / qblur=0.5 / vbv_maxrate=50000 / vbv_bufsize=30000 / nal_hrd=none / ip_ratio=1.10 / aq=1:0.80
Язык                                     : English
Default                                  : Нет
Forced                                   : Нет
Аудио #1
Идентификатор                            : 2
Формат                                   : AC-3
Формат/Информация                        : Audio Coding 3
Расширение режима                        : CM (complete main)
Параметр Endianness формата              : Big
Идентификатор кодека                     : A_AC3
Продолжительность                        : 1 ч. 49 м.
Вид битрейта                             : Постоянный
Битрейт                                  : 384 Кбит/сек
Каналы                                   : 2 канала
Расположение каналов                     : Front: L R
Частота                                  : 48,0 КГц
Битовая глубина                          : 16 бит
Метод сжатия                             : С потерями
Размер потока                            : 301 Мбайт (5%)
Заголовок                                : AC3.384Kbps (2ch) Russian (Дубляж iTunes)
Язык                                     : Russian
Default                                  : Да
Forced                                   : Нет
Аудио #2
Идентификатор                            : 3
Формат                                   : DTS
Формат/Информация                        : Digital Theater Systems
Режим                                    : 16
Параметр Endianness формата              : Big
Идентификатор кодека                     : A_DTS
Продолжительность                        : 1 ч. 49 м.
Вид битрейта                             : Постоянный
Битрейт                                  : 1509 Кбит/сек
Каналы                                   : 6 каналов
Расположение каналов                     : Front: L C R, Side: L R, LFE
Частота                                  : 48,0 КГц
Битовая глубина                          : 24 бит
Метод сжатия                             : С потерями
Задержка видео                           : 11 мс.
Размер потока                            : 1,16 Гбайт (19%)
Заголовок                                : DTS.1509.Kbps (6ch) English
Язык                                     : English
Default                                  : Нет
Forced                                   : Нет
Текст #1
Идентификатор                            : 4
Формат                                   : UTF-8
Идентификатор кодека                     : S_TEXT/UTF8
Идентификатор кодека/Информация          : UTF-8 Plain Text
Заголовок                                : Russian (Full)
Язык                                     : Russian
Default                                  : Нет
Forced                                   : Нет
Текст #2
Идентификатор                            : 5
Формат                                   : UTF-8
Идентификатор кодека                     : S_TEXT/UTF8
Идентификатор кодека/Информация          : UTF-8 Plain Text
Заголовок                                : English (Full)
Язык                                     : English
Default                                  : Нет
Forced                                   : Нет
Текст #3
Идентификатор                            : 6
Формат                                   : UTF-8
Идентификатор кодека                     : S_TEXT/UTF8
Идентификатор кодека/Информация          : UTF-8 Plain Text
Заголовок                                : English (SDH)
Язык                                     : English
Default                                  : Нет
Forced                                   : Нет
Текст #4
Идентификатор                            : 7
Формат                                   : UTF-8
Идентификатор кодека                     : S_TEXT/UTF8
Идентификатор кодека/Информация          : UTF-8 Plain Text
Заголовок                                : English (SDH-Colored)
Язык                                     : English
Default                                  : Нет
Forced                                   : Нет
Меню
00:00:00.000                             : en:00:00:00.000
00:06:28.054                             : en:00:06:28.054
00:14:22.987                             : en:00:14:22.987
00:21:33.375                             : en:00:21:33.375
00:27:31.149                             : en:00:27:31.149
00:35:14.904                             : en:00:35:14.904
00:40:18.833                             : en:00:40:18.833
00:47:31.015                             : en:00:47:31.015
00:55:41.088                             : en:00:55:41.088
01:00:00.055                             : en:01:00:00.055
01:04:57.685                             : en:01:04:57.685
01:12:06.072                             : en:01:12:06.072
01:21:08.447                             : en:01:21:08.447
01:29:04.756                             : en:01:29:04.756
01:33:01.367                             : en:01:33:01.367
01:39:48.441                             : en:01:39:48.441

x264 iNFO

x264 [info]: profile Main, level 4.1
x264 [info]: frame I:2795 Avg QP:15.00 size:124397
x264 [info]: frame P:39519 Avg QP:16.78 size: 56791
x264 [info]: frame B:115461 Avg QP:18.60 size: 20295
x264 [info]: consecutive B-frames: 4.4% 4.3% 10.3% 39.7% 12.4% 18.7% 4.0% 5.7% 0.5%
Скриншоты:

[th]http://img.torrentsclub.org/di/Y69C/39e0efa1025ee11...4fb1f58.png[/th] [th]http://img.torrentsclub.org/di/82AN/90aa30a453c4184...28535d5.png[/th] [th]http://img.torrentsclub.org/di/B8YE/67f6fed0762bce1...8654add.png[/th]

-Время раздачи: 24/7 (до 10 скачавших)

[Цитировать]



Показать сообщения:    

Текущее время: 11-Дек 11:05

Часовой пояс: UTC + 3


Вы не можете начинать темы
Вы не можете отвечать на сообщения
Вы не можете редактировать свои сообщения
Вы не можете удалять свои сообщения
Вы не можете голосовать в опросах
Вы не можете прикреплять файлы к сообщениям
Вы не можете скачивать файлы

!ВНИМАНИЕ!
Сайт не предоставляет электронные версии произведений, а занимается лишь коллекционированием и каталогизацией ссылок, присылаемых и публикуемых на форуме нашими читателями. Если вы являетесь правообладателем какого-либо представленного материала и не желаете, чтобы ссылка на него находилась в нашем каталоге, свяжитесь с нами, и мы незамедлительно удалим ее. Файлы для обмена на трекере предоставлены пользователями сайта, и администрация не несет ответственности за их содержание. Просьба не заливать файлы, защищенные авторскими правами, а также файлы нелегального содержания!