[ Сегодня идет свободное скачивание без начисления Download ]


Статистика раздачи
Нет
 
   
 
Top  
 
 
-Любовь в большом городе 3 (2014) DVDRip- Год выпуска: 2014
Производство: Россия, Украина, First Breath Films, Kvartal 95 Studio, Leopolis
Жанр: Комедия
Перевод: Не требуется (русский) | Лицензия |
Субтитры: Отсутствуют
Дата мировой премьеры: 1 января 2014
Дата российской премьеры: 1 января 2014, «Каропрокат»
Дата выхода DVD релиза: 30 января 2014, «CD Land»
Режиссер: Марюс Вайсберг, Дэвид Додсон
Продюсер: Сергей Ливнев, Владимир Зеленский, Сергей Шефир
Актеры: Алексей Чадов, Владимир Зеленский, Светлана Ходченкова, Вера Брежнева, Вилле Хаапасало, Настя Задорожная, Филипп Киркоров, Шэрон Стоун, Игорь Жижикин, Екатерина Климова
Описание фильма:
В жизни каждого отца, рано или поздно наступает момент, когда жена улетает на заслуженный отдых, а он остается один на один с собственным ребенком. Казалось бы — ничего сложного! Также подумали Игорь, Артем и Сауна, даже не подозревая, какой «водопад» приключений накроет их с головой. Измученные «прелестями» отцовства, парни встречают своего старого приятеля Святого Валентина. Снимая стресс за бутылочкой виски, ребята в шутку мечтают о том, чтобы их дети поскорее стали взрослыми. А на утро, шокированные папаши понимают — их мечта сбылась и теперь они на собственной шкуре поймут, что значит поговорка: Большие дети — большие проблемы…

Продолжительность: 01:18:45
Качество видео: DVDRip
Видеокодек: XviD
Битрейт видео: 1110 kb/s
Размер кадра: 720х400
Аудиокодек: MP3, 2 ch
Битрейт аудио: 128 kb/s

MI

Общее
Полное имя                               : D:\Раздачи\Lubov.V.Bolshom.Gorode.2014.DVDRip.700MB.NNM-CLUB.avi
Формат                                   : AVI
Формат/Информация                        : Audio Video Interleave
Размер файла                             : 703 Мбайт
Продолжительность                        : 1 ч. 18 м.
Общий поток                              : 1248 Кбит/сек
Программа кодирования                    : VirtualDubMod 1.5.10.3 | (build 2550/release)
Библиотека кодирования                   : VirtualDubMod build 2550/release
Видео
Идентификатор                            : 0
Формат                                   : MPEG-4 Visual
Профиль формата                          : Advanced Simple@L5
Параметр BVOP формата                    : 2
Параметр QPel формата                    : Нет
Параметр GMC формата                     : Без точки перехода
Параметр матрицы формата                 : Default (MPEG)
Идентификатор кодека                     : XVID
Идентификатор кодека/Подсказка           : XviD
Продолжительность                        : 1 ч. 18 м.
Битрейт                                  : 1110 Кбит/сек
Ширина                                   : 720 пикселей
Высота                                   : 400 пикселей
Соотношение сторон                       : 16:9
Частота кадров                           : 25,000 кадров/сек
Цветовое пространство                    : YUV
Субдискретизация насыщенности            : 4:2:0
Битовая глубина                          : 8 бит
Тип развёртки                            : Прогрессивная
Метод сжатия                             : С потерями
Бит/(Пиксели*Кадры)                      : 0.154
Размер потока                            : 625 Мбайт (89%)
Библиотека кодирования                   : XviD 1.2.1 (UTC 2008-12-04)
Аудио
Идентификатор                            : 1
Формат                                   : MPEG Audio
Версия формата                           : Version 1
Профиль формата                          : Layer 3
Идентификатор кодека                     : 55
Идентификатор кодека/Подсказка           : MP3
Продолжительность                        : 1 ч. 18 м.
Вид битрейта                             : Постоянный
Битрейт                                  : 128 Кбит/сек
Каналы                                   : 2 канала
Частота                                  : 48,0 КГц
Метод сжатия                             : С потерями
Размер потока                            : 72,1 Мбайт (10%)
Выравнивание                             : Соединение по промежуткам
Продолжительность промежутка             : 40  мс. (1,00 видеокадр)
Время предзагрузки промежутка            : 504  мс.
Библиотека кодирования                   : LAME3.99r
Настройки программы                      : -m s -V 4 -q 2 -lowpass 17 -b 128
Скриншоты:

[Цитировать]

Топик был перенесен из форума Новинки кинопроката в форум Комедия
Henkok



Показать сообщения:    

Текущее время: 07-Дек 23:21

Часовой пояс: UTC + 3


Вы не можете начинать темы
Вы не можете отвечать на сообщения
Вы не можете редактировать свои сообщения
Вы не можете удалять свои сообщения
Вы не можете голосовать в опросах
Вы не можете прикреплять файлы к сообщениям
Вы не можете скачивать файлы

!ВНИМАНИЕ!
Сайт не предоставляет электронные версии произведений, а занимается лишь коллекционированием и каталогизацией ссылок, присылаемых и публикуемых на форуме нашими читателями. Если вы являетесь правообладателем какого-либо представленного материала и не желаете, чтобы ссылка на него находилась в нашем каталоге, свяжитесь с нами, и мы незамедлительно удалим ее. Файлы для обмена на трекере предоставлены пользователями сайта, и администрация не несет ответственности за их содержание. Просьба не заливать файлы, защищенные авторскими правами, а также файлы нелегального содержания!