[ Сегодня идет свободное скачивание без начисления Download ]


Статистика раздачи
Нет
 
   
 
Top  
 
 
-Несносный дед / Jackass Presents: Bad Grandpa (2013) BDRip- Год выпуска: 2013
Производство: США | Dickhouse Productions, MTV Films
Жанр: Комедия
Перевод: Многоголосый закадровый, профессиональный
Субтитры: Вшитые отключаемые
Язык субтитров: Английский (Full, SDH, SDH-Colored)
Примечание: Присутствует ненормативная лексика.
Расширенная версия длиннее на 10 минут. Полный перевод.-Дата мировой премьеры: 23 октября 2013
Дата российской премьеры: 23 января 2014, «Централ Партнершип»-Режиссер: Джефф Треймейн-Продюсер: Дерек Фреда, Спайк Джонс, Джонни Ноксвил-Актеры: Джонни Ноксвил, Джексон Николл, Грег Харрис, Джорджина Кэйтс, Камбер Хейлик, Джилл Килл, Мэдисон Дэвис, Джордж Фонан, Грэси Мерседес, Мэрилинн Эллейн-Описание фильма:
• 86-летний старикан по имени Ирвинг Зисман путешествует по Америке с необычным компаньоном — восьмилетним «внуком» Билли.
• По дороге заводной дедушка знакомит впечатлительного Билли с людьми, местами и ситуациями, которые вряд ли укладываются в рамки привычных представлений о воспитании. Парочка столкнется со стриптизерами, разъяренными участниками помпезного детского конкурса красоты и их не менее злыми мамашами, скорбящими посетителями панихиды, завсегдатаями бара для байкеров и другими ничего не подозревающими гражданами США.-
Продолжительность: 01:42:13
Качество видео: BDRip 1080p [CHD]
Видеокодек: MPEG-4 AVC/H.264
Битрейт видео: ~ 16,0 Мбит/сек
Размер кадра: 1920 x 1080 (1.778) at 23.976 fps : 0.322 Bits/Pixel
Аудио #1: AC3 384 Кбит/сек (6ch), 48,0 КГц, 16 бит [Русский, MVO]
Аудио #2: DTS 1510 Кбит/сек (6ch), 48,0 КГц, 24 бит [Английский]
Дополнительно: Сохранены оригинальные чаптеры как на Blu-ray
Релиз:

Награды

Знаете ли вы, что...

• Хотя сцены со Спайком Джонсом и не вошли в финальную версию фильма, его имя указано в финальных титрах, а удаленные сцены с его участием можно увидеть на DVD/Blu-Ray.
• Первый фильм «Чудаков», в написании сценария которого участвовали люди не из команды «Чудаков». Сценаристы Факс Бар и Адам Смолл ранее писали сценарий пародии на «Чудаков» для своего шоу «MADtv».
• Несмотря на юный возраст, Джексон Николл на протяжении всех съемок практически всегда оставался в образе.
• Джонни Ноксвил заявил, что его персонаж, Ирвинг Зисман, представляет собой сочетание его собственного отца и более извращенной версии самого Джонни.

Ошибки в фильме

• В закусочной, где у Ирвинга и Билли были пердежные соревнования, Билли сначала ест свой завтрак, а после смены кадра он уже ест курицу в пармезане.
• Когда Билли сидит с Лизой, на ней надето пальто. Когда подходит Ирвинг, она уже без пальто.
• В сцене испражнения на стену, след по стене распространяется уже после того, как дедушка справил нужду. И женщины, сидящей за Билли поначалу нет, она появляется, когда дедушка и Билли встают, собираясь уходить.

MediaInfo:

Уникальный идентификатор                 : 233390841847340118367467070300790227655 (0xAF9570EC51DD9AB2849DE52E05D882C7)
Полное имя                               : H:\Nesnosnyj.ded.2013.P.UNRATED.BDRip.1080p.NNM-CLUB.mkv
Формат                                   : Matroska
Версия формата                           : Version 2
Размер файла                             : 12,8 Гбайт
Продолжительность                        : 1 ч. 42 м.
Общий поток                              : 17,9 Мбит/сек
Название фильма                          : Jackass.Presents.Bad.Grandpa.2013.UNRATED.BluRay.1080p.DTS.x264-CHD
Дата кодирования                         : UTC 2014-01-24 01:24:30
Программа кодирования                    : mkvmerge v2.9.9 ('Tutu') built on Nov 25 2009 21:13:32
Библиотека кодирования                   : libebml v0.7.9 + libmatroska v0.8.1
Видео
Идентификатор                            : 1
Формат                                   : AVC
Формат/Информация                        : Advanced Video Codec
Профиль формата                          : [url=mailto:High@L4.1]High@L4.1[/url]
Параметр CABAC формата                   : Да
Параметр ReFrames формата                : 4 кадра
Идентификатор кодека                     : V_MPEG4/ISO/AVC
Продолжительность                        : 1 ч. 42 м.
Битрейт                                  : 16,0 Мбит/сек
Ширина                                   : 1920 пикселей
Высота                                   : 1080 пикселей
Соотношение сторон                       : 16:9
Режим частоты кадров                     : Постоянный
Частота кадров                           : 23,976 кадра/сек
Цветовое пространство                    : YUV
Субдискретизация насыщенности            : 4:2:0
Битовая глубина                          : 8 бит
Тип развёртки                            : Прогрессивная
Бит/(Пиксели*Кадры)                      : 0.322
Размер потока                            : 11,2 Гбайт (87%)
Заголовок                                : -=Release for NNM-CLUB.RU=-
Библиотека кодирования                   : x264 core 138 r2356 a1d3d17
Настройки программы                      : cabac=1 / ref=4 / deblock=1:-3:-3 / analyse=0x3:0x113 / me=umh / subme=10 / psy=1 / psy_rd=1.00:0.05 / mixed_ref=1 / me_range=32 / chroma_me=1 / trellis=2 / 8x8dct=1 / cqm=0 / deadzone=21,11 / fast_pskip=0 / chroma_qp_offset=-2 / threads=18 / lookahead_threads=1 / sliced_threads=0 / nr=0 / decimate=1 / interlaced=0 / bluray_compat=0 / constrained_intra=0 / bframes=6 / b_pyramid=2 / b_adapt=2 / b_bias=0 / direct=3 / weightb=1 / open_gop=0 / weightp=2 / keyint=250 / keyint_min=23 / scenecut=40 / intra_refresh=0 / rc=2pass / mbtree=0 / bitrate=16000 / ratetol=1.0 / qcomp=0.70 / qpmin=0 / qpmax=69 / qpstep=4 / cplxblur=20.0 / qblur=0.5 / ip_ratio=1.40 / pb_ratio=1.30 / aq=2:0.90
Язык                                     : English
Default                                  : Нет
Forced                                   : Нет
Аудио #1
Идентификатор                            : 2
Формат                                   : AC-3
Формат/Информация                        : Audio Coding 3
Расширение режима                        : CM (complete main)
Параметр Endianness формата              : Big
Идентификатор кодека                     : A_AC3
Продолжительность                        : 1 ч. 42 м.
Вид битрейта                             : Постоянный
Битрейт                                  : 384 Кбит/сек
Каналы                                   : 6 каналов
Расположение каналов                     : Front: L C R, Side: L R, LFE
Частота                                  : 48,0 КГц
Битовая глубина                          : 16 бит
Метод сжатия                             : С потерями
Размер потока                            : 281 Мбайт (2%)
Заголовок                                : AC3.384Kbps (6ch) Russian (MVO)
Язык                                     : Russian
Default                                  : Да
Forced                                   : Нет
Аудио #2
Идентификатор                            : 3
Формат                                   : DTS
Формат/Информация                        : Digital Theater Systems
Режим                                    : 16
Параметр Endianness формата              : Big
Идентификатор кодека                     : A_DTS
Продолжительность                        : 1 ч. 42 м.
Вид битрейта                             : Постоянный
Битрейт                                  : 1509 Кбит/сек
Каналы                                   : 6 каналов
Расположение каналов                     : Front: L C R, Side: L R, LFE
Частота                                  : 48,0 КГц
Битовая глубина                          : 24 бит
Метод сжатия                             : С потерями
Задержка видео                           : 11 мс.
Размер потока                            : 1,08 Гбайт (8%)
Заголовок                                : DTS.1509.Kbps (6ch) English
Язык                                     : English
Default                                  : Нет
Forced                                   : Нет
Текст #1
Идентификатор                            : 4
Формат                                   : UTF-8
Идентификатор кодека                     : S_TEXT/UTF8
Идентификатор кодека/Информация          : UTF-8 Plain Text
Заголовок                                : English (Full)
Язык                                     : English
Default                                  : Нет
Forced                                   : Нет
Текст #2
Идентификатор                            : 5
Формат                                   : UTF-8
Идентификатор кодека                     : S_TEXT/UTF8
Идентификатор кодека/Информация          : UTF-8 Plain Text
Заголовок                                : English (SDH)
Язык                                     : English
Default                                  : Нет
Forced                                   : Нет
Текст #3
Идентификатор                            : 6
Формат                                   : UTF-8
Идентификатор кодека                     : S_TEXT/UTF8
Идентификатор кодека/Информация          : UTF-8 Plain Text
Заголовок                                : English (SDH-Colored)
Язык                                     : English
Default                                  : Нет
Forced                                   : Нет
Меню
00:00:00.000                             : en:00:00:00.000
00:07:18.772                             : en:00:07:18.772
00:18:03.082                             : en:00:18:03.082
00:25:39.413                             : en:00:25:39.413
00:32:17.352                             : en:00:32:17.352
00:42:02.562                             : en:00:42:02.562
00:48:59.395                             : en:00:48:59.395
00:57:16.308                             : en:00:57:16.308
01:04:32.911                             : en:01:04:32.911
01:11:59.774                             : en:01:11:59.774
01:18:44.303                             : en:01:18:44.303
01:26:40.862                             : en:01:26:40.862
01:33:32.231                             : en:01:33:32.231

x264 iNFO

x264 [info]: profile Main, level 4.1
x264 [info]: frame I:1124 Avg QP:16.83 size:210961
x264 [info]: frame P:34841 Avg QP:18.60 size:127964
x264 [info]: frame B:111085 Avg QP:20.66 size: 68141
Скриншоты:


[Цитировать]



Показать сообщения:    

Текущее время: 10-Дек 00:23

Часовой пояс: UTC + 3


Вы не можете начинать темы
Вы не можете отвечать на сообщения
Вы не можете редактировать свои сообщения
Вы не можете удалять свои сообщения
Вы не можете голосовать в опросах
Вы не можете прикреплять файлы к сообщениям
Вы не можете скачивать файлы

!ВНИМАНИЕ!
Сайт не предоставляет электронные версии произведений, а занимается лишь коллекционированием и каталогизацией ссылок, присылаемых и публикуемых на форуме нашими читателями. Если вы являетесь правообладателем какого-либо представленного материала и не желаете, чтобы ссылка на него находилась в нашем каталоге, свяжитесь с нами, и мы незамедлительно удалим ее. Файлы для обмена на трекере предоставлены пользователями сайта, и администрация не несет ответственности за их содержание. Просьба не заливать файлы, защищенные авторскими правами, а также файлы нелегального содержания!