[ Сегодня идет свободное скачивание без начисления Download ]


Статистика раздачи
Нет
 
   
 
Top  
 
 
-Мститель (1-4 серия из 4) (2013) SATRip- Русское название: Мститель
Год выпуска: 2013
Производство: Россия, кинокомпания "Студия 2В" по заказу НТВ
Жанр: Боевик
Дата российской премьеры: 26 января 2014
Режиссер: Дмитрий Брусникин
Актеры: Антон Пампушный, Анастасия Панина, Антон Батырев, Игорь Лагутин, Борис Щербаков, Александр Никольский
Описание фильма:
Бывший офицер ГРУ Никита Соколов с другом Валерой Осокиным невольно становятся свидетелями убийства дальнобойщика. Преступники решаются расправиться с очевидцами и бросаются за ними в погоню. Выжить в безумной гонке удается лишь Никите. Валера погибает в тот момент, когда бандиты таранят их машину, и она врезается в дерево.
Попав в больницу, Соколов дает себе обещание отомстить за друга. Вот только следователь Крытов на пару с полковником Анохиным не верят его показаниям. Оказалось, что на месте аварии был найден нож с отпечатками Никиты, а рядом с телом дальнобойщика — ножны. Следователь приходит к выводу, что Соколов с другом пытались ограбить дальнобойщика, тот пытался защититься, и опытный офицер убил его. Так жертва преступления становится главным подозреваемым. Когда становится известно, что убитый дальнобойщик – отец Крытова, Анохин отстраняет его от дела…
Продолжительность: 00:44:00 серия
Качество видео: SATRip
Видеокодек: XviD
Битрейт видео: 1795 kbps
Размер кадра: 720x448
Аудиокодек: MP3, 2 ch
Битрейт аудио: 128 kbps

Внимание! Раздача ведётся путём добавления новых серий. Описание обновления торрента:

Внимание! Раздача ведётся путём добавления новых серий; при каждом добавлении создётся новый торрент. Чтобы начать докачку новой серии, пользователям необходимо сделать следующее:
(1) остановить скачивание,
(2) удалить старый торрент у себя из клиента (старые серии удалять не надо),
(3) скачать новый торрент и запустить его у себя в клиенте вместо старого, при этом указать клиенту путь в старую папку куда и должно происходить скачивание новых серий.
Ваш клиент при этом должен произвести хеширование (проверку) старой папки (если не производит сам - помогите ему сделать это), и будет докачивать только те серии которых у вас ещё нет. Старые серии при этом не удаляются, а продолжают раздаваться!
Eсли вы уже удалили старые серии, то предотвратить повторную закачку старых серий можно, отжав галочку в соответсвующих местах при запуске нового торрента. По возможности, желательно не удалять старые серии как можно дольше чтобы релизёр не столько продолжал раздавать старые серии, а смог сконцентрироваться на новых

MI

Общее
Полное имя                               : D:\Раздачи\Mstitel.2013.SATRip.NNM-CLUB\1.serija.avi
Формат                                   : AVI
Формат/Информация                        : Audio Video Interleave
Размер файла                             : 608 Мбайт
Продолжительность                        : 44 м.
Общий поток                              : 1933 Кбит/сек
Программа кодирования                    : VirtualDubMod 1.5.10.2 (build 2540/release)
Библиотека кодирования                   : VirtualDub build 32507/release
Видео
Идентификатор                            : 0
Формат                                   : MPEG-4 Visual
Профиль формата                          : Advanced [email protected]
Параметр BVOP формата                    : 2
Параметр QPel формата                    : Нет
Параметр GMC формата                     : Без точки перехода
Параметр матрицы формата                 : Default (MPEG)
Идентификатор кодека                     : XVID
Идентификатор кодека/Подсказка           : XviD
Продолжительность                        : 44 м.
Битрейт                                  : 1795 Кбит/сек
Ширина                                   : 720 пикселей
Высота                                   : 448 пикселей
Соотношение сторон                       : 16:10
Частота кадров                           : 25,000 кадров/сек
Цветовое пространство                    : YUV
Субдискретизация насыщенности            : 4:2:0
Битовая глубина                          : 8 бит
Тип развёртки                            : Прогрессивная
Метод сжатия                             : С потерями
Бит/(Пиксели*Кадры)                      : 0.223
Размер потока                            : 565 Мбайт (93%)
Библиотека кодирования                   : XviD 64
Аудио
Идентификатор                            : 1
Формат                                   : MPEG Audio
Версия формата                           : Version 1
Профиль формата                          : Layer 3
Режим                                    : Joint stereo
Расширение режима                        : MS Stereo
Идентификатор кодека                     : 55
Идентификатор кодека/Подсказка           : MP3
Продолжительность                        : 44 м.
Вид битрейта                             : Постоянный
Битрейт                                  : 128 Кбит/сек
Каналы                                   : 2 канала
Частота                                  : 48,0 КГц
Метод сжатия                             : С потерями
Размер потока                            : 40,3 Мбайт (7%)
Выравнивание                             : Соединение по промежуткам
Продолжительность промежутка             : 40  мс. (1,00 видеокадр)
Время предзагрузки промежутка            : 504  мс.
Скриншоты: Мститель на NNM-clubВремя раздачи: 24/7,
до 5 скачавших.

[Цитировать]



Показать сообщения:    

Текущее время: 04-Дек 21:26

Часовой пояс: UTC + 3


Вы не можете начинать темы
Вы не можете отвечать на сообщения
Вы не можете редактировать свои сообщения
Вы не можете удалять свои сообщения
Вы не можете голосовать в опросах
Вы не можете прикреплять файлы к сообщениям
Вы не можете скачивать файлы

!ВНИМАНИЕ!
Сайт не предоставляет электронные версии произведений, а занимается лишь коллекционированием и каталогизацией ссылок, присылаемых и публикуемых на форуме нашими читателями. Если вы являетесь правообладателем какого-либо представленного материала и не желаете, чтобы ссылка на него находилась в нашем каталоге, свяжитесь с нами, и мы незамедлительно удалим ее. Файлы для обмена на трекере предоставлены пользователями сайта, и администрация не несет ответственности за их содержание. Просьба не заливать файлы, защищенные авторскими правами, а также файлы нелегального содержания!