[ Сегодня идет свободное скачивание без начисления Download ]


Статистика раздачи
Нет
 
   
 
Top  
 
 
-Va-банк / Runner Runner
«Игра стоит свеч»
- Год выпуска: 2013
Производство: США
Жанр: Триллер, Драма, Криминал
Перевод: Дублированный (Лицензия)
Субтитры: Вшитые отключаемые
Язык субтитров: Русский (форсированные на латинские диалоги)
Навигация по главам: Есть (28)
Дата мировой премьеры: 18 сентября 2013
Дата российской премьеры: 26 сентября 2013, «Двадцатый Век Фокс СНГ»
Дата выхода DVD/Blu-Ray релиза: 6 февраля 2014, «Двадцатый Век Фокс СНГ»
Режиссер: Брэд Фурман
Продюсер: Леонардо ДиКаприо, Эрик Холмберг, Дженнифер Дэвиссон
Актеры: Джастин Тимберлэйк, Бен Аффлек, Джемма Артертон, Энтони Маки, Майкл Эспер, Оливер Купер, Кристиан Джордж, Юл Васкез, Джон Хёрд, Джеймс Молина
Описание фильма:
Чтобы оплачивать учёбу в колледже, Ричи погружается в мир азартных игр онлайн. Когда удача изменяет ему, он отправляется на Коста-Рику, чтобы помериться силами с настоящим асом игрового бизнеса. Тот видит в Ричи родственную душу и вводит его в свою игру. Но когда степень опасности возрастает, а ставки достигают невероятных высот, Ричи вдруг отчётливо понимает, что его новый босс вот-вот совершит непоправимое, и пытается поменяться с ним ролями.

Продолжительность: 01:31:32
Качество видео: BDRip-AVC
Видеокодек: MPEG-4 AVC/H.264
Битрейт видео: ~1891 kb/s
Размер кадра: 1056x440
Аудиокодек: AC3 5.1
Битрейт аудио: 384 kb/s

MediaInfo:

Общее
Уникальный идентификатор                 : 183193136427076531478857921604885784867 (0x89D1B6F6EA0B8870BBEDFF958EF1A923)
Полное имя                               : Runner.Runner.2013.BDRip-AVC.1,45GB.NNM-CLUB.mkv
Формат                                   : Matroska
Версия формата                           : Version 4 / Version 2
Размер файла                             : 1,46 Гбайт
Продолжительность                        : 1 ч. 31 м.
Общий поток                              : 2276 Кбит/сек
Название фильма                          : Release for NNM-CLUB
Дата кодирования                         : UTC 2014-01-27 05:58:38
Программа кодирования                    : mkvmerge v6.7.0 ('Back to the Ground') 64bit built on Jan 22 2014 08:47:28
Библиотека кодирования                   : libebml v1.3.0 + libmatroska v1.4.1
Attachment                               : Yes
Видео
Идентификатор                            : 1
Формат                                   : AVC
Формат/Информация                        : Advanced Video Codec
Профиль формата                          : [url=mailto:[email protected]][email protected][/url]
Параметр CABAC формата                   : Да
Параметр ReFrames формата                : 7 кадров
Идентификатор кодека                     : V_MPEG4/ISO/AVC
Продолжительность                        : 1 ч. 31 м.
Битрейт                                  : 1891 Кбит/сек
Ширина                                   : 1056 пикселей
Высота                                   : 440 пикселей
Соотношение сторон                       : 2,40:1
Режим частоты кадров                     : Постоянный
Частота кадров                           : 23,976 кадра/сек
Цветовое пространство                    : YUV
Субдискретизация насыщенности            : 4:2:0
Битовая глубина                          : 8 бит
Тип развёртки                            : Прогрессивная
Бит/(Пиксели*Кадры)                      : 0.170
Размер потока                            : 1,18 Гбайт (81%)
Заголовок                                : Va-банк / Runner Runner (2013)
Библиотека кодирования                   : x264 core 130 r2273 b3065e6
Настройки программы                      : cabac=1 / ref=7 / deblock=1:-1:-1 / analyse=0x3:0x133 / me=umh / subme=10 / psy=1 / psy_rd=1.00:0.15 / mixed_ref=0 / me_range=32 / chroma_me=1 / trellis=2 / 8x8dct=1 / cqm=0 / deadzone=21,11 / fast_pskip=0 / chroma_qp_offset=-3 / threads=6 / lookahead_threads=1 / sliced_threads=0 / nr=0 / decimate=1 / interlaced=0 / bluray_compat=0 / constrained_intra=0 / bframes=8 / b_pyramid=2 / b_adapt=2 / b_bias=0 / direct=3 / weightb=1 / open_gop=0 / weightp=2 / keyint=250 / keyint_min=23 / scenecut=40 / intra_refresh=0 / rc_lookahead=50 / rc=2pass / mbtree=1 / bitrate=1891 / ratetol=1.0 / qcomp=0.60 / qpmin=0 / qpmax=69 / qpstep=4 / cplxblur=20.0 / qblur=0.5 / ip_ratio=1.40 / aq=1:1.00
Язык                                     : English
Default                                  : Да
Forced                                   : Нет
Аудио
Идентификатор                            : 2
Формат                                   : AC-3
Формат/Информация                        : Audio Coding 3
Расширение режима                        : CM (complete main)
Параметр Endianness формата              : Big
Идентификатор кодека                     : A_AC3
Продолжительность                        : 1 ч. 31 м.
Вид битрейта                             : Постоянный
Битрейт                                  : 384 Кбит/сек
Каналы                                   : 6 каналов
Расположение каналов                     : Front: L C R, Side: L R, LFE
Частота                                  : 48,0 КГц
Битовая глубина                          : 16 бит
Метод сжатия                             : С потерями
Размер потока                            : 251 Мбайт (17%)
Заголовок                                : Дубляж (лицензия) | AC3, 6ch, 384 kbps
Язык                                     : Russian
Default                                  : Да
Forced                                   : Нет
Текст
Идентификатор                            : 3
Формат                                   : UTF-8
Идентификатор кодека                     : S_TEXT/UTF8
Идентификатор кодека/Информация          : UTF-8 Plain Text
Заголовок                                : Форсированные
Язык                                     : Russian
Default                                  : Да
Forced                                   : Да
Меню
00:00:00.000                             : en:00:00:00.000
00:03:08.814                             : en:00:03:08.814
00:05:47.973                             : en:00:05:47.973
00:08:43.857                             : en:00:08:43.857
00:11:16.384                             : en:00:11:16.384
00:13:34.647                             : en:00:13:34.647
00:15:13.913                             : en:00:15:13.913
00:16:55.765                             : en:00:16:55.765
00:19:46.602                             : en:00:19:46.602
00:24:24.505                             : en:00:24:24.505
00:27:07.334                             : en:00:27:07.334
00:31:01.943                             : en:00:31:01.943
00:32:59.811                             : en:00:32:59.811
00:36:30.605                             : en:00:36:30.605
00:38:40.026                             : en:00:38:40.026
00:43:36.906                             : en:00:43:36.906
00:46:38.087                             : en:00:46:38.087
00:48:37.706                             : en:00:48:37.706
00:53:03.555                             : en:00:53:03.555
00:54:38.609                             : en:00:54:38.609
00:57:18.644                             : en:00:57:18.644
01:00:38.885                             : en:01:00:38.885
01:03:17.669                             : en:01:03:17.669
01:08:48.833                             : en:01:08:48.833
01:13:04.797                             : en:01:13:04.797
01:16:45.935                             : en:01:16:45.935
01:21:22.961                             : en:01:21:22.961
01:25:32.502                             : en:01:25:32.502

[Цитировать]



Показать сообщения:    

Текущее время: 05-Дек 03:34

Часовой пояс: UTC + 3


Вы не можете начинать темы
Вы не можете отвечать на сообщения
Вы не можете редактировать свои сообщения
Вы не можете удалять свои сообщения
Вы не можете голосовать в опросах
Вы не можете прикреплять файлы к сообщениям
Вы не можете скачивать файлы

!ВНИМАНИЕ!
Сайт не предоставляет электронные версии произведений, а занимается лишь коллекционированием и каталогизацией ссылок, присылаемых и публикуемых на форуме нашими читателями. Если вы являетесь правообладателем какого-либо представленного материала и не желаете, чтобы ссылка на него находилась в нашем каталоге, свяжитесь с нами, и мы незамедлительно удалим ее. Файлы для обмена на трекере предоставлены пользователями сайта, и администрация не несет ответственности за их содержание. Просьба не заливать файлы, защищенные авторскими правами, а также файлы нелегального содержания!