[ Сегодня идет свободное скачивание без начисления Download ]


Статистика раздачи
Нет
 
   
 
Top  
 
 
-Дом в конце времен / La casa del fin de los tiempos (2013) HDRip- Год выпуска: 2013
Производство: Венесуэла
Жанр: Триллер
Перевод: Одноголосый закадровый, любительский
Озвучка / Автор перевода: Barin101
Субтитры: Отсутствуют
Дата мировой премьеры: 17 июня 2013
Режиссер: Алехандро Хидальго
Продюсер: Хосе Эрнесто Мартинез, Брисеньо Эванс, ...
Актеры: Рудди Родригес, Гонсало Куберо, Росмель Бустаманте, Эктор Меркадо, Гильермо Гарсия
Описание фильма:
История матери, которая сталкивается с паранормальными явлениями в своем старом доме. Спустя 30 лет после инцидента, она возвращается в этот дом, чтобы разгадать тайну этих событий…
Продолжительность: 01:40:16
Качество видео: HDRip [Рип с Blu-Ray]
Видеокодек: Xvid
Битрейт видео: ~1738 kb/s
Размер кадра: 720x400
Аудиокодек: AC3 2.0
Битрейт аудио: 192.00 kbps

Mediainfo

Общее
Полное имя : H:\Do konza\Dom.konca.vremjon.2013.L1.HDRip.1400Mb.avi
Формат : AVI
Формат/Информация : Audio Video Interleave
Размер файла : 1,37 Гбайт
Продолжительность : 1 ч. 40 м.
Общий поток : 1939 Кбит/сек
Программа кодирования : VirtualDubMod 1.5.10.3 | www.virtualdub-fr.org || (build 2550/release)
Библиотека кодирования : VirtualDubMod build 2550/release
Видео
Идентификатор : 0
Формат : MPEG-4 Visual
Профиль формата : Advanced Simple@L5
Параметр BVOP формата : 1
Параметр QPel формата : Нет
Параметр GMC формата : Без точки перехода
Параметр матрицы формата : Выборочная
Идентификатор кодека : XVID
Идентификатор кодека/Подсказка : XviD
Продолжительность : 1 ч. 40 м.
Битрейт : 1738 Кбит/сек
Ширина : 720 пикселей
Высота : 400 пикселей
Соотношение сторон : 16:9
Частота кадров : 23,976 кадра/сек
Цветовое пространство : YUV
Субдискретизация насыщенности : 4:2:0
Битовая глубина : 8 бит
Тип развёртки : Прогрессивная
Метод сжатия : С потерями
Бит/(Пиксели*Кадры) : 0.252
Размер потока : 1,22 Гбайт (90%)
Библиотека кодирования : XviD 1.2.1 (UTC 2008-12-04)
Аудио
Идентификатор : 1
Формат : AC-3
Формат/Информация : Audio Coding 3
Расширение режима : CM (complete main)
Параметр Endianness формата : Big
Идентификатор кодека : 2000
Продолжительность : 1 ч. 40 м.
Вид битрейта : Постоянный
Битрейт : 192 Кбит/сек
Каналы : 2 канала
Расположение каналов : Front: L R
Частота : 48,0 КГц
Битовая глубина : 16 бит
Метод сжатия : С потерями
Размер потока : 139 Мбайт (10%)
Выравнивание : Разделение по промежуткам
Продолжительность промежутка : 42 мс. (1,00 видеокадр)
Время предзагрузки промежутка : 500 мс.
Скриншоты:[th]http://img.torrentsclub.org/di/44YO/a7cp.jpg[/th] [th]http://img.torrentsclub.org/di/FNGH/b519.jpg[/th] [th]http://img.torrentsclub.org/di/PUGF/m44x.jpg[/th]Время раздачи: С 07:00 до 23:00

[Цитировать]



Показать сообщения:    

Текущее время: 10-Дек 00:20

Часовой пояс: UTC + 3


Вы не можете начинать темы
Вы не можете отвечать на сообщения
Вы не можете редактировать свои сообщения
Вы не можете удалять свои сообщения
Вы не можете голосовать в опросах
Вы не можете прикреплять файлы к сообщениям
Вы не можете скачивать файлы

!ВНИМАНИЕ!
Сайт не предоставляет электронные версии произведений, а занимается лишь коллекционированием и каталогизацией ссылок, присылаемых и публикуемых на форуме нашими читателями. Если вы являетесь правообладателем какого-либо представленного материала и не желаете, чтобы ссылка на него находилась в нашем каталоге, свяжитесь с нами, и мы незамедлительно удалим ее. Файлы для обмена на трекере предоставлены пользователями сайта, и администрация не несет ответственности за их содержание. Просьба не заливать файлы, защищенные авторскими правами, а также файлы нелегального содержания!