[ Сегодня идет свободное скачивание без начисления Download ]


Статистика раздачи
Нет
 
   
 
Top  
 
 
-Эпидемия / Los ultimos dias (2013) HDRip [H.264]- Год выпуска: 2013
Производство: Испания, A3 Media Cine
Жанр: Фантастика, Триллер, Приключения
Перевод: Многоголосный закадровый профессиональный (Лицензия)
Субтитры: Отсутствуют
Дата мировой премьеры: 20 марта 2013
Дата российской премьеры: 31 октября 2013, «Ракета Релизинг»
Дата выхода DVD релиза: 24 января 2014, «CD Land»
Режиссер: Давид Пастор, Алекс Пастор
Продюсер: Мерседес Гамеро, Альберто Марини, Педро Уриоль
Актеры: Ким Гутьеррес, Хосе Коронадо, Марта Этура, Летисия Долера, Микель Иглесиас, Иван Массаге, Пере Вентура, Луис Солер
Описание фильма:
2013 год. Таинственная эпидемия мгновенно распространилась по планете: теперь миром правит агорафобия — боязнь открытого пространства. Оставшиеся в живых люди прячутся под землей или внутри зданий.
Главный герой офисный клерк Марк. Внезапная эпидемия застала его на работе. Дома у Марка осталась беременная жена, которая должна вот вот родить. Ему нужно вернуться к ней, но как это сделать, если он не может выйти на улицу?Он начинает свой путь по подземным коммуникациям, перебираясь из подвала, в другой подвал, из одного тоннеля метро в другой тоннель. Ему остается совсем немного, он уже видит свою жену из окна соседнего дома, но перейти в него, можно только по улице. Решится ли он на этот шаг?
Продолжительность: 01:42:43
Качество видео: HDRip-AVC
Видеокодек: MPEG-4 AVC/H.264
Битрейт видео: ~1576 kb/s
Размер кадра: 1010x424
Аудиокодек: AC3 5.1
Битрейт аудио: 448 kb/s

MediaInfo

Общее
Уникальный идентификатор                 : 192653436802780057499433579540495412224 (0x90EFB3C8CD899D0CAF4C0DD5B2A72C00)
Полное имя                               : Los.ultimos.dias.2013.P.HDRip-AVC.1,45GB.mkv
Формат                                   : Matroska
Версия формата                           : Version 4 / Version 2
Размер файла                             : 1,45 Гбайт
Продолжительность                        : 1 ч. 42 м.
Общий поток                              : 2021 Кбит/сек
Дата кодирования                         : UTC 2014-01-28 04:31:28
Программа кодирования                    : mkvmerge v6.7.0 ('Back to the Ground') 64bit built on Jan 22 2014 08:47:28
Библиотека кодирования                   : libebml v1.3.0 + libmatroska v1.4.1
Attachment                               : Yes
Видео
Идентификатор                            : 1
Формат                                   : AVC
Формат/Информация                        : Advanced Video Codec
Профиль формата                          : [url=mailto:[email protected]][email protected][/url]
Параметр CABAC формата                   : Да
Параметр ReFrames формата                : 11 кадров
Идентификатор кодека                     : V_MPEG4/ISO/AVC
Продолжительность                        : 1 ч. 42 м.
Битрейт                                  : 1576 Кбит/сек
Ширина                                   : 1010 пикселей
Высота                                   : 424 пикселя
Соотношение сторон                       : 2,40:1
Режим частоты кадров                     : Постоянный
Частота кадров                           : 24,000 кадра/сек
Цветовое пространство                    : YUV
Субдискретизация насыщенности            : 4:2:0
Битовая глубина                          : 8 бит
Тип развёртки                            : Прогрессивная
Бит/(Пиксели*Кадры)                      : 0.153
Размер потока                            : 1,10 Гбайт (76%)
Заголовок                                : Эпидемия / Los ultimos dias (2013)
Библиотека кодирования                   : x264 core 130 r2273 b3065e6
Настройки программы                      : cabac=1 / ref=11 / deblock=1:-2:-1 / analyse=0x3:0x133 / me=umh / subme=11 / psy=1 / psy_rd=1.05:0.02 / mixed_ref=1 / me_range=32 / chroma_me=1 / trellis=2 / 8x8dct=1 / cqm=0 / deadzone=21,11 / fast_pskip=0 / chroma_qp_offset=-3 / threads=6 / lookahead_threads=1 / sliced_threads=0 / nr=0 / decimate=1 / interlaced=0 / bluray_compat=0 / constrained_intra=0 / bframes=10 / b_pyramid=2 / b_adapt=2 / b_bias=0 / direct=3 / weightb=1 / open_gop=0 / weightp=2 / keyint=240 / keyint_min=24 / scenecut=40 / intra_refresh=0 / rc_lookahead=60 / rc=2pass / mbtree=1 / bitrate=1576 / ratetol=2.0 / qcomp=0.70 / qpmin=0 / qpmax=69 / qpstep=4 / cplxblur=20.0 / qblur=0.5 / vbv_maxrate=50000 / vbv_bufsize=62500 / nal_hrd=none / ip_ratio=1.40 / aq=1:1.00
Default                                  : Да
Forced                                   : Нет
Аудио
Идентификатор                            : 2
Формат                                   : AC-3
Формат/Информация                        : Audio Coding 3
Расширение режима                        : CM (complete main)
Параметр Endianness формата              : Big
Идентификатор кодека                     : A_AC3
Продолжительность                        : 1 ч. 42 м.
Вид битрейта                             : Постоянный
Битрейт                                  : 448 Кбит/сек
Каналы                                   : 6 каналов
Расположение каналов                     : Front: L C R, Side: L R, LFE
Частота                                  : 48,0 КГц
Битовая глубина                          : 16 бит
Метод сжатия                             : С потерями
Размер потока                            : 329 Мбайт (22%)
Заголовок                                : Многоголосный закадровый профессиональный (Лицензия)
Язык                                     : Russian
Default                                  : Да
Forced                                   : Нет
Скриншоты:
[th]http://img.torrentsclub.org/di/3ED4/013ac618a470510...0c3182d.png[/th] [th]http://img.torrentsclub.org/di/RWXX/63b1349c4ac13e8...38a8a7c.png[/th] [th]http://img.torrentsclub.org/di/9BV1/595bb2bf15e610b...fcde554.png[/th]
Время раздачи: 24/7 по возможности

[Цитировать]



Показать сообщения:    

Текущее время: 05-Дек 03:32

Часовой пояс: UTC + 3


Вы не можете начинать темы
Вы не можете отвечать на сообщения
Вы не можете редактировать свои сообщения
Вы не можете удалять свои сообщения
Вы не можете голосовать в опросах
Вы не можете прикреплять файлы к сообщениям
Вы не можете скачивать файлы

!ВНИМАНИЕ!
Сайт не предоставляет электронные версии произведений, а занимается лишь коллекционированием и каталогизацией ссылок, присылаемых и публикуемых на форуме нашими читателями. Если вы являетесь правообладателем какого-либо представленного материала и не желаете, чтобы ссылка на него находилась в нашем каталоге, свяжитесь с нами, и мы незамедлительно удалим ее. Файлы для обмена на трекере предоставлены пользователями сайта, и администрация не несет ответственности за их содержание. Просьба не заливать файлы, защищенные авторскими правами, а также файлы нелегального содержания!