[ Сегодня идет свободное скачивание без начисления Download ]


Статистика раздачи
Нет
 
   
 
Top  
 
 
-Тебе конец / You're Next (2013) BDRemux- Год выпуска: 2013
Производство: США, HanWay Films, Snoot Entertainment
Жанр: Ужасы, Триллер
Перевод: Дублированный (Лицензия), Любительский одноголосый
Субтитры: Вшитые отключаемые
Язык субтитров: Русские, английские-Дата мировой премьеры: 10 сентября 2011
Дата российской премьеры: 29 августа 2013, «Вольга»
Дата выхода DVD релиза: 30 января 2014, «Вольга»-Режиссер: Адам Вингард
Актеры: Шарни Винсон, Николас Туччи, Венди Гленн, Эй Джей Боуэн, Джо Сванберг, Барбара Крэмптон, Роб Моран, Маргарет Лэни, Эми Саймец, Тай Уэст-Описание фильма:
Банда маньяков в звериных масках, вооруженных топорами и арбалетами, вторгается в загородный дом семьи Дэвисон. Жертвы оказываются в западне… Неожиданно среди них находится один достойный противник, способный дать отпор убийцам.- -
Рейтинг R - Детям до 17 лет обязательно присутствие родителей-Продолжительность: 01:34:23
Качество видео: BDRemux-Видеокодек: MPEG-4 AVC/H.264
Битрейт видео: ~23.4 Мбит/с
Размер кадра: 1920x1080-Аудио 1: Русский AC3, 6 ch, 448 Кбит/с | Дублированный
Аудио 2: Русский AC3, 6 ch, 448 Кбит/с | Любительский (Яроцкий)
Аудио 3: Русский DTS, 6 ch, 1510 Кбит/с | Любительский
Аудио 4: Английский DTS-MA, 6 ch, 1561 Кбит/с | Оригинал
Аудио 5: Английский AC3, 2 ch, 224 Кбит/с | Комментарии
Аудио 6: Английский AC3, 2 ch, 224 Кбит/с | Комментарии режиссера-

Знаете ли вы, что...

21 сентября 2011 года студия Lionsgate объявила, что она приобрела права на распространение фильма в Америке, Великобритании и Канаде.
Фильм был снят еще в 2011 году и демонстрировался на паре кинофестивалей, но в широкий прокат вышел только в августе 2013 года.
-

Ошибки в фильме:

После того как Феликс бьет Дрейка в грудь пятью ножами, в тот момент, когда он лежит на полу подвала, можно заметить защитный щит, который Дрейк носит под свитером.
Сразу же после того момента, как его убивают, Пол лежит на полу с широко открытым ртом. Когда позже снова показывают его тело, его рот закрыт.
Количество крови на струнах рояля увеличивается каждый раз после смены кадра.
В титрах должность бухгалтера продакшна написана с ошибкой («accountain» вместо правильного «accountant»).
-

MediaInfo:

General
Complete name : E:\You're.Next.2013.BDRemux.1080p.mkv
Format : Matroska
File size : 18.7 GiB
Duration : 1h 34mn
Overall bit rate : 28.4 Mbps
Encoded date : UTC 2014-01-28 03:53:19
Writing application : mkvmerge v6.7.0 ('Back to the Ground') 64bit built on Jan 8 2014 15:10:52
Writing library : libebml v1.3.0 + libmatroska v1.4.1
Video
ID : 1
Format : AVC
Format/Info : Advanced Video Codec
Format profile : High@L4.1
Format settings, CABAC : Yes
Format settings, ReFrames : 4 frames
Muxing mode : Container profile=Unknown@4.1
Codec ID : V_MPEG4/ISO/AVC
Duration : 1h 34mn
Width : 1 920 pixels
Height : 1 080 pixels
Display aspect ratio : 16:9
Frame rate : 23.976 fps
Resolution : 8 bits
Colorimetry : 4:2:0
Scan type : Progressive
Title : You're Next
Audio #1
ID : 2
Format : AC-3
Format/Info : Audio Coding 3
Codec ID : A_AC3
Duration : 1h 34mn
Bit rate mode : Constant
Bit rate : 448 Kbps
Channel(s) : 6 channels
Channel positions : Front: L C R, Surround: L R, LFE
Sampling rate : 48.0 KHz
Stream size : 302 MiB (2%)
Language : Russian
Audio #2
ID : 3
Format : AC-3
Format/Info : Audio Coding 3
Codec ID : A_AC3
Duration : 1h 34mn
Bit rate mode : Constant
Bit rate : 448 Kbps
Channel(s) : 6 channels
Channel positions : Front: L C R, Surround: L R, LFE
Sampling rate : 48.0 KHz
Stream size : 302 MiB (2%)
Language : Russian
Audio #3
ID : 4
Format : DTS
Format/Info : Digital Theater Systems
Codec ID : A_DTS
Duration : 1h 34mn
Bit rate mode : Constant
Bit rate : 1 510 Kbps
Channel(s) : 6 channels
Channel positions : Front: L C R, Surround: L R, LFE
Sampling rate : 48.0 KHz
Resolution : 24 bits
Stream size : 1 019 MiB (5%)
Language : Russian
Audio #4
ID : 5
Format : DTS
Format/Info : Digital Theater Systems
Format profile : MA
Codec ID : A_DTS
Duration : 1h 34mn
Bit rate mode : Variable
Channel(s) : 6 channels
Channel positions : Front: L C R, Surround: L R, LFE
Sampling rate : 48.0 KHz
Resolution : 24 bits
Audio #5
ID : 6
Format : AC-3
Format/Info : Audio Coding 3
Codec ID : A_AC3
Duration : 1h 34mn
Bit rate mode : Constant
Bit rate : 224 Kbps
Channel(s) : 2 channels
Channel positions : L R
Sampling rate : 48.0 KHz
Stream size : 151 MiB (1%)
Audio #6
ID : 7
Format : AC-3
Format/Info : Audio Coding 3
Codec ID : A_AC3
Duration : 1h 34mn
Bit rate mode : Constant
Bit rate : 224 Kbps
Channel(s) : 2 channels
Channel positions : L R
Sampling rate : 48.0 KHz
Stream size : 151 MiB (1%)
Text #1
ID : 8
Format : UTF-8
Codec ID : S_TEXT/UTF8
Codec ID/Info : UTF-8 Plain Text
Language : Russian
Text #2
ID : 9
Format : UTF-8
Codec ID : S_TEXT/UTF8
Codec ID/Info : UTF-8 Plain Text
Language : Russian
Text #3
ID : 10
Format : PGS
Codec ID : S_HDMV/PGS
Codec ID/Info : The same subtitle format used on BDs/HD-DVDs
Text #4
ID : 11
Format : PGS
Codec ID : S_HDMV/PGS
Codec ID/Info : The same subtitle format used on BDs/HD-DVDs
Menu
00:00:00.000 : en:Chapter 1
00:04:26.015 : en:Chapter 2
00:15:08.365 : en:Chapter 3
00:22:49.868 : en:Chapter 4
00:33:38.850 : en:Chapter 5
00:44:59.821 : en:Chapter 6
00:54:07.994 : en:Chapter 7
01:01:25.681 : en:Chapter 8
01:11:12.017 : en:Chapter 9
01:17:46.077 : en:Chapter 10
01:24:08.126 : en:Chapter 11
01:31:24.979 : en:Chapter 12
01:34:23.449 : en:Chapter 13
-Скриншоты:

[Цитировать]



Показать сообщения:    

Текущее время: 08-Дек 19:07

Часовой пояс: UTC + 3


Вы не можете начинать темы
Вы не можете отвечать на сообщения
Вы не можете редактировать свои сообщения
Вы не можете удалять свои сообщения
Вы не можете голосовать в опросах
Вы не можете прикреплять файлы к сообщениям
Вы не можете скачивать файлы

!ВНИМАНИЕ!
Сайт не предоставляет электронные версии произведений, а занимается лишь коллекционированием и каталогизацией ссылок, присылаемых и публикуемых на форуме нашими читателями. Если вы являетесь правообладателем какого-либо представленного материала и не желаете, чтобы ссылка на него находилась в нашем каталоге, свяжитесь с нами, и мы незамедлительно удалим ее. Файлы для обмена на трекере предоставлены пользователями сайта, и администрация не несет ответственности за их содержание. Просьба не заливать файлы, защищенные авторскими правами, а также файлы нелегального содержания!