[ Сегодня идет свободное скачивание без начисления Download ]


Статистика раздачи
Нет
 
   
 
Top  
 
 
Страсть / Passion
Страна: Франция, Германия, Великобритания
Студия: SBS Productions, Integral Film, France 2 Cinema
Жанр: Эротический Триллер
Год выпуска: 2012
Продолжительность: 01:41:03
Перевод: Любительский (двухголосый закадровый) Green Tea
Перевод 2: Одноголосый закадровый den904
Cубтитры: английские
Оригинальная аудиодорожка: английский
Режиссер: Брайан Де Пальма / Brian De Palma
В ролях: Рэйчел МакАдамс, Нуми Рапас, Каролина Херфурт, Пол Андерсон, Райнер Бок, Беньямин Задлер, Майкл Рочопф, Макс Урлахер, Доминик Рааке, Тристан В. Пюттер
Описание: Вражда начальницы рекламного агентства и её подчинённой доходит от присваивания заслуг и публичного унижения до убийства.
Данный фильм является англоязычным ремейком фильма Преступная любовь (2010).
Сэмпл: http://rusfolder.com/38853346
Тип релиза: BDRemux 1080p
Контейнер: MKV
Видео: MPEG-4 AVC Video 29901 kbps 1080p / 23.976 fps / 16:9 / High Profile 4.1
Аудио 1: RUS, AC3, 6 channels, 48.0 KHz, 448 kbps - Green Tea
Аудио 2: RUS, AC3, 6 channels, 48.0 KHz, 448 kbps - den904
Аудио 3: ENG, DTS-HD Master Audio 5.1 / 48 kHz / 1731 kbps / 16-bit (DTS Core: 5.1 / 48 kHz / 1509 kbps / 16-bit) - Оригинал
Формат субтитров: softsub (SRT)

MediaInfo

General
Unique ID : 237472902194538858845416932187723191368 (0xB2A79E097347E21D8890F2F2F3FED448)
Complete name : D:\Up Up and Away\Movies\Passion 2012 1080p Blu-ray Remux AVC DTS-HD MA 5.1 - KRaLiMaRKo\Passion.mkv
Format : Matroska
Format version : Version 2
File size : 23.0 GiB
Duration : 1h 41mn
Overall bit rate mode : Variable
Overall bit rate : 32.5 Mbps
Movie name : Passion 2012 1080p Blu-ray Remux AVC DTS-HD MA 5.1 - KRaLiMaRKo
Encoded date : UTC 2013-11-18 09:42:31
Writing application : mkvmerge v4.0.0 ('The Stars were mine') сборка от Jun 6 2010 16:18:42
Writing library : libebml v1.0.0 + libmatroska v1.0.0
Video
ID : 1
Format : AVC
Format/Info : Advanced Video Codec
Format profile : High@L4.1
Format settings, CABAC : Yes
Format settings, ReFrames : 2 frames
Codec ID : V_MPEG4/ISO/AVC
Duration : 1h 41mn
Bit rate mode : Variable
Width : 1 920 pixels
Height : 1 080 pixels
Display aspect ratio : 16:9
Frame rate mode : Constant
Frame rate : 23.976 fps
Color space : YUV
Chroma subsampling : 4:2:0
Bit depth : 8 bits
Scan type : Progressive
Language : English
Default : No
Forced : No
Audio #1
ID : 2
Format : AC-3
Format/Info : Audio Coding 3
Mode extension : CM (complete main)
Format settings, Endianness : Big
Codec ID : A_AC3
Duration : 1h 41mn
Bit rate mode : Constant
Bit rate : 448 Kbps
Channel(s) : 6 channels
Channel positions : Front: L C R, Side: L R, LFE
Sampling rate : 48.0 KHz
Bit depth : 16 bits
Compression mode : Lossy
Stream size : 324 MiB (1%)
Title : DVO (Green Tea)
Language : Russian
Default : Yes
Forced : Yes
Audio #2
ID : 3
Format : AC-3
Format/Info : Audio Coding 3
Mode extension : CM (complete main)
Format settings, Endianness : Big
Codec ID : A_AC3
Duration : 1h 41mn
Bit rate mode : Constant
Bit rate : 448 Kbps
Channel(s) : 6 channels
Channel positions : Front: L C R, Side: L R, LFE
Sampling rate : 48.0 KHz
Bit depth : 16 bits
Compression mode : Lossy
Stream size : 324 MiB (1%)
Title : VO (den904)
Language : Russian
Default : No
Forced : No
Audio #3
ID : 4
Format : DTS
Format/Info : Digital Theater Systems
Format profile : MA / Core
Mode : 16
Format settings, Endianness : Big
Codec ID : A_DTS
Duration : 1h 41mn
Bit rate mode : Variable
Bit rate : Unknown / 1 509 Kbps
Channel(s) : 6 channels
Channel positions : Front: L C R, Side: L R, LFE
Sampling rate : 48.0 KHz
Bit depth : 16 bits
Compression mode : Lossless / Lossy
Title : Original
Language : English
Default : No
Forced : No
Text
ID : 5
Format : UTF-8
Codec ID : S_TEXT/UTF8
Codec ID/Info : UTF-8 Plain Text
Title : ENG
Language : English
Default : Yes
Forced : No
Menu
00:00:00.000 : en:00:00:00.000
00:04:41.865 : en:00:04:41.865
00:14:41.297 : en:00:14:41.297
00:28:18.155 : en:00:28:18.155
00:37:44.596 : en:00:37:44.596
00:50:05.586 : en:00:50:05.586
00:58:31.675 : en:00:58:31.675
01:09:59.487 : en:01:09:59.487
01:21:31.178 : en:01:21:31.178
01:32:04.310 : en:01:32:04.310
01:37:07.613 : en:01:37:07.613

Скриншоты

[Цитировать]



Показать сообщения:    

Текущее время: 29-Июн 13:26

Часовой пояс: UTC + 6


Вы не можете начинать темы
Вы не можете отвечать на сообщения
Вы не можете редактировать свои сообщения
Вы не можете удалять свои сообщения
Вы не можете голосовать в опросах
Вы не можете прикреплять файлы к сообщениям
Вы не можете скачивать файлы

!ВНИМАНИЕ!
Сайт не предоставляет электронные версии произведений, а занимается лишь коллекционированием и каталогизацией ссылок, присылаемых и публикуемых на форуме нашими читателями. Если вы являетесь правообладателем какого-либо представленного материала и не желаете, чтобы ссылка на него находилась в нашем каталоге, свяжитесь с нами, и мы незамедлительно удалим ее. Файлы для обмена на трекере предоставлены пользователями сайта, и администрация не несет ответственности за их содержание. Просьба не заливать файлы, защищенные авторскими правами, а также файлы нелегального содержания!